Loading...

A League Of Their Own UK S12E05 720p HDTV x264-FaiLED

seeders: 706
leechers: 143
A League Of Their Own UK S12E05 720p HDTV x264-FaiLED magnet link

Info Hash: A3455DD5C562ED29B3E4B6B2F39599292A80ACE2
Loading...
A League Of Their Own UK S12E05 720p HDTV x264-FaiLED
  • Downloads 7
  • Added 5 days
  • Quality Good
  • Torrent ID 72147636928
  • Note if .torrent file deleted click magnet below
  • Download Magnet
Torrent Info:
• You can easily download A League Of Their Own UK S12E05 720p HDTV x264-FaiLED Torerent to your PC, MAC, Tablet, Mobile or any other devices.
• HD Quality Torrent A League Of Their Own UK S12E05 720p HDTV x264-FaiLED
• Your Support Keep WatchTorrentMovie.Us alive.

Torrent Files

A League Of Their Own UK S12E05 720p HDTV x264-FaiLED (Size: 1.7 GB)
  A League Of Their Own UK S12E05 720p HDTV x264-FaiLED 1.7 GB

Torrent Description



A.League.Of.Their.Own.UK.S12E05.720p.HDTV.x264-FaiLED



Complete name : a.league.of.their.own.uk.s12e05.720p.hdtv.x264-failed.mkv
Format : Matroska
Format version : Version 4 / Version 2
File size : 1.66 GiB
Duration : 43 min 40 s
Overall bit rate : 5 425 kb/s
Encoded date : UTC 2017-10-12 22:04:27
Writing application : mkvmerge v9.4.0 ('Knurl') 64bit
Writing library : libebml v1.3.4 + libmatroska v1.4.5

Video
ID : 1
Format : AVC
Format/Info : Advanced Video Codec
Format profile : [email protected]
Format settings, CABAC : Yes
Format settings, ReFrames : 5 frames
Codec ID : V_MPEG4/ISO/AVC
Duration : 43 min 40 s
Bit rate : 5 038 kb/s
Width : 1 280 pixels
Height : 720 pixels
Display aspect ratio : 16:9
Frame rate mode : Constant
Frame rate : 50.000 FPS
Color space : YUV
Chroma subsampling : 4:2:0
Bit depth : 8 bits
Scan type : Progressive
Bits/(Pixel*Frame) : 0.109
Stream size : 1.54 GiB (93%)
Writing library : x264 core 152 r2851 ba24899
Encoding settings : cabac=1 / ref=5 / deblock=1:0:0 / analyse=0x3:0x113 / me=hex / subme=8 / psy=1 / psy_rd=1.00:0.00 / mixed_ref=1 / me_range=16 / chroma_me=1 / trellis=2 / 8x8dct=1 / cqm=0 / deadzone=21,11 / fast_pskip=1 / chroma_qp_offset=-2 / threads=18 / lookahead_threads=3 / sliced_threads=0 / nr=0 / decimate=1 / interlaced=0 / bluray_compat=0 / constrained_intra=0 / bframes=3 / b_pyramid=2 / b_adapt=1 / b_bias=0 / direct=3 / weightb=1 / open_gop=0 / weightp=2 / keyint=250 / keyint_min=25 / scenecut=40 / intra_refresh=0 / rc_lookahead=50 / rc=crf / mbtree=1 / crf=20.0 / qcomp=0.60 / qpmin=0 / qpmax=69 / qpstep=4 / ip_ratio=1.40 / aq=1:1.00
Default : Yes
Forced : No
Color range : Limited
Color primaries : BT.709
Transfer characteristics : BT.709
Matrix coefficients : BT.709

Audio
ID : 2
Format : AC-3
Format/Info : Audio Coding 3
Format settings, Endianness : Big
Codec ID : A_AC3
Duration : 43 min 40 s
Bit rate mode : Constant
Bit rate : 384 kb/s
Channel(s) : 2 channels
Channel positions : Front: L R
Sampling rate : 48.0 kHz
Frame rate : 31.250 FPS (1536 spf)
Bit depth : 16 bits
Compression mode : Lossy
Delay relative to video : 30 ms
Stream size : 120 MiB (7%)
Language : English
Service kind : Complete Main
Default : Yes
Forced : No






Click To View Screenshot

Click To View Screenshot

Click To View Screenshot




( Tags )





People also Search for: A League Of Their Own UK S12E05 720p HDTV x264-FaiLED

  • • 1080p A League Of Their Own UK S12E05 720p HDTV x264-FaiLED Torrent
  • • 720p A League Of Their Own UK S12E05 720p HDTV x264-FaiLED DVDRip
  • • HD A League Of Their Own UK S12E05 720p HDTV x264-FaiLED
  • • Dvix/Xvid A League Of Their Own UK S12E05 720p HDTV x264-FaiLED
  • • Blu-ray A League Of Their Own UK S12E05 720p HDTV x264-FaiLED

Recently Added Torrents

torrent name size age seed leech
439.81 MB 21 minutes 673 162
526.07 MB 21 minutes 174 213
3.8 GB 21 minutes 269 467
422.73 MB 21 minutes 239 4
6.8 GB 21 minutes 231 189