Loading...

Arrow.S06E01.720p.HDTV.X264-DIMENSION

seeders: 342
leechers: 279
Arrow.S06E01.720p.HDTV.X264-DIMENSION magnet link

Info Hash: BC7CAACE0615C8C3C5F21A2C0B2A8C2C9852779D
Loading...
Arrow.S06E01.720p.HDTV.X264-DIMENSION
  • Downloads 12
  • Added 1 week
  • Quality Good
  • Torrent ID 72147637043
  • Note if .torrent file deleted click magnet below
  • Download Magnet
Torrent Info:
• You can easily download Arrow.S06E01.720p.HDTV.X264-DIMENSION Torerent to your PC, MAC, Tablet, Mobile or any other devices.
• HD Quality Torrent Arrow.S06E01.720p.HDTV.X264-DIMENSION
• Your Support Keep WatchTorrentMovie.Us alive.

Torrent Files

Arrow.S06E01.720p.HDTV.X264-DIMENSION (Size: 1.04 GB)
  Arrow.S06E01.720p.HDTV.X264-DIMENSION 1.04 GB

Torrent Description


Arrow.S06E01.720p.HDTV.X264-DIMENSION



Complete name                            : Arrow.S06E01.720p.HDTV.X264-DIMENSION.mkv
Format                                   : Matroska
Format version                           : Version 4 / Version 2
File size                                : 1.04 GiB
Duration                                 : 42 min 26 s
Overall bit rate                         : 3 508 kb/s
Encoded date                             : UTC 2017-10-12 16:18:11
Writing application                      : mkvmerge v16.0.0 ('Protest') 64-bit
Writing library                          : libebml v1.3.5 + libmatroska v1.4.8

Video
ID                                       : 1
Format                                   : AVC
Format/Info                              : Advanced Video Codec
Format profile                           :
Format settings, CABAC                   : Yes
Format settings, ReFrames                : 9 frames
Codec ID                                 : V_MPEG4/ISO/AVC
Duration                                 : 42 min 26 s
Bit rate                                 : 3 122 kb/s
Width                                    : 1 280 pixels
Height                                   : 720 pixels
Display aspect ratio                     : 16:9
Frame rate mode                          : Constant
Frame rate                               : 23.976 (24000/1001) FPS
Color space                              : YUV
Chroma subsampling                       : 4:2:0
Bit depth                                : 8 bits
Scan type                                : Progressive
Bits/(Pixel*Frame)                       : 0.141
Stream size                              : 948 MiB (89%)
Writing library                          : x264 core 152 r2851 ba24899
Encoding settings                        : cabac=1 / ref=9 / deblock=1:-2:-2 / analyse=0x3:0x133 / me=umh / subme=10 / psy=1 / psy_rd=1.00:0.00 / mixed_ref=1 / me_range=32 / chroma_me=1 / trellis=2 / 8x8dct=1 / cqm=0 / deadzone=21,11 / fast_pskip=0 / chroma_qp_offset=-2 / threads=16 / lookahead_threads=1 / sliced_threads=0 / nr=0 / decimate=1 / interlaced=0 / bluray_compat=0 / constrained_intra=0 / bframes=5 / b_pyramid=2 / b_adapt=2 / b_bias=0 / direct=3 / weightb=1 / open_gop=0 / weightp=2 / keyint=250 / keyint_min=23 / scenecut=40 / intra_refresh=0 / rc_lookahead=60 / rc=crf / mbtree=1 / crf=18.0 / qcomp=0.60 / qpmin=0 / qpmax=69 / qpstep=4 / ip_ratio=1.40 / aq=1:1.00
Language                                 : English
Default                                  : Yes
Forced                                   : No
Color range                              : Limited
Matrix coefficients                      : BT.709

Audio
ID                                       : 2
Format                                   : AC-3
Format/Info                              : Audio Coding 3
Format settings, Endianness              : Big
Codec ID                                 : A_AC3
Duration                                 : 42 min 26 s
Bit rate mode                            : Constant
Bit rate                                 : 384 kb/s
Channel(s)                               : 6 channels
Channel positions                        : Front: L C R, Side: L R, LFE
Sampling rate                            : 48.0 kHz
Frame rate                               : 31.250 FPS (1536 spf)
Bit depth                                : 16 bits
Compression mode                         : Lossy
Stream size                              : 117 MiB (11%)
Service kind                             : Complete Main
Default                                  : Yes
Forced                                   : No






Click To View Screenshot

Click To View Screenshot

Click To View Screenshot

( Tags )





People also Search for: Arrow.S06E01.720p.HDTV.X264-DIMENSION

  • • 1080p Arrow.S06E01.720p.HDTV.X264-DIMENSION Torrent
  • • 720p Arrow.S06E01.720p.HDTV.X264-DIMENSION DVDRip
  • • HD Arrow.S06E01.720p.HDTV.X264-DIMENSION
  • • Dvix/Xvid Arrow.S06E01.720p.HDTV.X264-DIMENSION
  • • Blu-ray Arrow.S06E01.720p.HDTV.X264-DIMENSION

Recently Added Torrents

torrent name size age seed leech
1.5 GB 3 minutes 581 238
328.3 MB 3 minutes 341 95
191.3 MB 3 minutes 50 246
2.77 GB 3 minutes 143 281
556.2 MB 3 minutes 42 95