Loading...

Arrow.S06E01.HDTV.x264-LOL

seeders: 200
leechers: 407
Arrow.S06E01.HDTV.x264-LOL magnet link

Info Hash: 334CAD5B99977DB6641E74A0382E611772065F2D
Loading...
Arrow.S06E01.HDTV.x264-LOL
  • Downloads 18
  • Added 6 days
  • Quality Good
  • Torrent ID 72147637039
  • Note if .torrent file deleted click magnet below
  • Download Magnet
Torrent Info:
• You can easily download Arrow.S06E01.HDTV.x264-LOL Torerent to your PC, MAC, Tablet, Mobile or any other devices.
• HD Quality Torrent Arrow.S06E01.HDTV.x264-LOL
• Your Support Keep WatchTorrentMovie.Us alive.

Torrent Files

Arrow.S06E01.HDTV.x264-LOL (Size: 293.92 MB)
  Arrow.S06E01.HDTV.x264-LOL 293.92 MB

Torrent Description


Arrow.S06E01.HDTV.x264-LOL



Complete name                            : arrow.601.hdtv-lol.mkv
Format                                   : Matroska
Format version                           : Version 4 / Version 2
File size                                : 294 MiB
Duration                                 : 42 min 26 s
Overall bit rate                         : 968 kb/s
Encoded date                             : UTC 2017-10-12 15:21:06
Writing application                      : mkvmerge v16.0.0 ('Protest') 64-bit
Writing library                          : libebml v1.3.5 + libmatroska v1.4.8

Video
ID                                       : 1
Format                                   : AVC
Format/Info                              : Advanced Video Codec
Format profile                           :
Format settings, CABAC                   : Yes
Format settings, ReFrames                : 5 frames
Codec ID                                 : V_MPEG4/ISO/AVC
Duration                                 : 42 min 26 s
Bit rate                                 : 850 kb/s
Width                                    : 720 pixels
Height                                   : 404 pixels
Display aspect ratio                     : 16:9
Frame rate mode                          : Constant
Frame rate                               : 23.976 (24000/1001) FPS
Color space                              : YUV
Chroma subsampling                       : 4:2:0
Bit depth                                : 8 bits
Scan type                                : Progressive
Bits/(Pixel*Frame)                       : 0.122
Stream size                              : 258 MiB (88%)
Writing library                          : x264 core 152 r2851 ba24899
Encoding settings                        : cabac=1 / ref=5 / deblock=1:1:1 / analyse=0x3:0x133 / me=umh / subme=9 / psy=1 / psy_rd=1.00:0.00 / mixed_ref=1 / me_range=16 / chroma_me=1 / trellis=2 / 8x8dct=1 / cqm=0 / deadzone=21,11 / fast_pskip=0 / chroma_qp_offset=-2 / threads=16 / lookahead_threads=1 / sliced_threads=0 / nr=0 / decimate=1 / interlaced=0 / bluray_compat=0 / constrained_intra=0 / bframes=3 / b_pyramid=2 / b_adapt=2 / b_bias=0 / direct=3 / weightb=1 / open_gop=0 / weightp=2 / keyint=250 / keyint_min=23 / scenecut=40 / intra_refresh=0 / rc_lookahead=60 / rc=crf / mbtree=1 / crf=19.0 / qcomp=0.60 / qpmin=0 / qpmax=69 / qpstep=4 / ip_ratio=1.40 / aq=1:1.00
Language                                 : English
Default                                  : Yes
Forced                                   : No
Color range                              : Limited
Matrix coefficients                      : BT.709

Audio
ID                                       : 2
Format                                   : AAC
Format/Info                              : Advanced Audio Codec
Format profile                           : LC
Codec ID                                 : A_AAC
Duration                                 : 42 min 26 s
Bit rate                                 : 116 kb/s
Channel(s)                               : 2 channels
Channel positions                        : Front: L R
Sampling rate                            : 48.0 kHz
Frame rate                               : 46.875 FPS (1024 spf)
Compression mode                         : Lossy
Delay relative to video                  : 9 ms
Stream size                              : 35.1 MiB (12%)
Default                                  : Yes
Forced                                   : No






Click To View Screenshot

Click To View Screenshot

Click To View Screenshot

( Tags )





People also Search for: Arrow.S06E01.HDTV.x264-LOL

  • • 1080p Arrow.S06E01.HDTV.x264-LOL Torrent
  • • 720p Arrow.S06E01.HDTV.x264-LOL DVDRip
  • • HD Arrow.S06E01.HDTV.x264-LOL
  • • Dvix/Xvid Arrow.S06E01.HDTV.x264-LOL
  • • Blu-ray Arrow.S06E01.HDTV.x264-LOL

Recently Added Torrents

torrent name size age seed leech
83.38 MB 11 minutes 624 345
701.9 MB 11 minutes 533 285
690.6 MB 11 minutes 731 142
251.23 MB 11 minutes 243 384
2.8 GB 11 minutes 223 489