Loading...

Corruption 1968 International Version 1080p BluRay x264-REGRET

seeders: 744
leechers: 235
Corruption 1968 International Version 1080p BluRay x264-REGRET magnet link

Info Hash: E2FDEB75DEA8FBCF22101EFA73DFA87AE96B3E5A
Loading...
Corruption 1968 International Version 1080p BluRay x264-REGRET
  • Downloads 12
  • Added 1 week
  • Quality Good
  • Torrent ID 72147636968
  • Note if .torrent file deleted click magnet below
  • Download Magnet
Torrent Info:
• You can easily download Corruption 1968 International Version 1080p BluRay x264-REGRET Torerent to your PC, MAC, Tablet, Mobile or any other devices.
• HD Quality Torrent Corruption 1968 International Version 1080p BluRay x264-REGRET
• Your Support Keep WatchTorrentMovie.Us alive.

Torrent Files

Corruption 1968 International Version 1080p BluRay x264-REGRET (Size: 5.5 GB)
  Corruption 1968 International Version 1080p BluRay x264-REGRET 5.5 GB

Torrent Description



Corruption.1968.International.Version.1080p.BluRay.x264-REGRET

ImDb: http://www.imdb.com/title/tt0061520



Complete name : Corruption.1968.International.Version.1080p.BluRay.x264-REGRET.mkv
Format : Matroska
Format version : Version 4 / Version 2
File size : 5.46 GiB
Duration : 1 h 30 min
Overall bit rate mode : Variable
Overall bit rate : 8 620 kb/s
Encoded date : UTC 2017-10-01 21:07:12
Writing application : mkvmerge v15.0.0 ('Duel with the Devil') 64-bit
Writing library : libebml v1.3.5 + libmatroska v1.4.5

Video
ID : 1
Format : AVC
Format/Info : Advanced Video Codec
Format profile : [email protected]
Format settings, CABAC : Yes
Format settings, ReFrames : 4 frames
Codec ID : V_MPEG4/ISO/AVC
Duration : 1 h 30 min
Bit rate : 8 359 kb/s
Width : 1 920 pixels
Height : 1 040 pixels
Display aspect ratio : 1.85:1
Frame rate mode : Constant
Frame rate : 23.976 (24000/1001) FPS
Color space : YUV
Chroma subsampling : 4:2:0
Bit depth : 8 bits
Scan type : Progressive
Bits/(Pixel*Frame) : 0.175
Stream size : 5.29 GiB (97%)
Writing library : x264 core 152 r2851 ba24899
Encoding settings : cabac=1 / ref=4 / deblock=1:-3:-3 / analyse=0x3:0x113 / me=umh / subme=8 / psy=1 / psy_rd=1.00:0.25 / mixed_ref=1 / me_range=24 / chroma_me=1 / trellis=1 / 8x8dct=1 / cqm=0 / deadzone=21,11 / fast_pskip=1 / chroma_qp_offset=-4 / threads=30 / lookahead_threads=5 / sliced_threads=0 / nr=0 / decimate=1 / interlaced=0 / bluray_compat=0 / constrained_intra=0 / bframes=3 / b_pyramid=2 / b_adapt=1 / b_bias=0 / direct=3 / weightb=1 / open_gop=0 / weightp=2 / keyint=240 / keyint_min=24 / scenecut=40 / intra_refresh=0 / rc_lookahead=50 / rc=2pass / mbtree=1 / bitrate=8359 / ratetol=1.0 / qcomp=0.60 / qpmin=0 / qpmax=69 / qpstep=4 / cplxblur=20.0 / qblur=0.5 / ip_ratio=1.40 / aq=1:0.75
Default : Yes
Forced : No

Audio
ID : 2
Format : FLAC
Format/Info : Free Lossless Audio Codec
Codec ID : A_FLAC
Duration : 1 h 30 min
Bit rate mode : Variable
Bit rate : 259 kb/s
Channel(s) : 1 channel
Channel positions : Front: C
Sampling rate : 48.0 kHz
Frame rate : 11.719 FPS (4096 spf)
Bit depth : 16 bits
Stream size : 168 MiB (3%)
Writing library : libFLAC 1.2.1 (UTC 2007-09-17)
Language : English
Default : Yes
Forced : No

Menu
00:00:00.000 : en:00:00:00.000
00:03:39.219 : en:00:03:39.219
00:08:56.286 : en:00:08:56.286
00:10:51.818 : en:00:10:51.818
00:12:28.831 : en:00:12:28.831
00:14:46.969 : en:00:14:46.969
00:17:06.859 : en:00:17:06.859
00:18:47.918 : en:00:18:47.918
00:21:20.696 : en:00:21:20.696
00:26:55.948 : en:00:26:55.948
00:29:18.173 : en:00:29:18.173
00:32:35.579 : en:00:32:35.579
00:33:09.321 : en:00:33:09.321
00:36:57.674 : en:00:36:57.674
00:38:18.671 : en:00:38:18.671
00:40:22.420 : en:00:40:22.420
00:45:14.212 : en:00:45:14.212
00:49:27.381 : en:00:49:27.381
00:52:55.631 : en:00:52:55.631
00:55:56.979 : en:00:55:56.979
00:59:31.735 : en:00:59:31.735
01:04:35.789 : en:01:04:35.789
01:07:04.687 : en:01:07:04.687
01:11:39.045 : en:01:11:39.045
01:12:41.440 : en:01:12:41.440
01:16:18.157 : en:01:16:18.157
01:19:00.486 : en:01:19:00.486
01:21:59.665 : en:01:21:59.665
01:24:01.119 : en:01:24:01.119
01:24:57.092 : en:01:24:57.092
01:28:23.298 : en:01:28:23.298
01:29:47.883 : en:01:29:47.883






Click To View Screenshot

Click To View Screenshot

Click To View Screenshot




( Tags )





People also Search for: Corruption 1968 International Version 1080p BluRay x264-REGRET

  • • 1080p Corruption 1968 International Version 1080p BluRay x264-REGRET Torrent
  • • 720p Corruption 1968 International Version 1080p BluRay x264-REGRET DVDRip
  • • HD Corruption 1968 International Version 1080p BluRay x264-REGRET
  • • Dvix/Xvid Corruption 1968 International Version 1080p BluRay x264-REGRET
  • • Blu-ray Corruption 1968 International Version 1080p BluRay x264-REGRET

Recently Added Torrents

torrent name size age seed leech
1.3 GB 27 minutes 198 313
188.69 MB 27 minutes 300 410
144.0 MB 27 minutes 554 498
1.4 GB 27 minutes 579 46
352.93 MB 27 minutes 574 463