Loading...

Django Unchained (2012) (1080p x265 HEVC 10bit AAC 5 1) [Prof]

seeders: 780
leechers: 449
Django Unchained (2012) (1080p x265 HEVC 10bit AAC 5 1) [Prof] magnet link

Info Hash: C4F79B9645B80B5A1F8823A05ADA51C115A42EB5
Loading...
Django Unchained (2012) (1080p x265 HEVC 10bit AAC 5 1) [Prof]
  • Downloads 10
  • Added 5 days
  • Quality Good
  • Torrent ID 72147636946
  • Note if .torrent file deleted click magnet below
  • Download Magnet
Torrent Info:
• You can easily download Django Unchained (2012) (1080p x265 HEVC 10bit AAC 5 1) [Prof] Torerent to your PC, MAC, Tablet, Mobile or any other devices.
• HD Quality Torrent Django Unchained (2012) (1080p x265 HEVC 10bit AAC 5 1) [Prof]
• Your Support Keep WatchTorrentMovie.Us alive.

Torrent Files

Django Unchained (2012) (1080p x265 HEVC 10bit AAC 5 1) [Prof] (Size: 7.1 GB)
  Django Unchained (2012) (1080p x265 HEVC 10bit AAC 5 1) [Prof] 7.1 GB

Torrent Description



Format : Matroska
Format version : Version 4 / Version 2
File size : 7.05 GiB
Duration : 2 h 45 min
Overall bit rate : 6 104 kb/s
Movie name : Django Unchained
Encoded date : UTC 2017-10-11 09:49:55
Writing application : mkvmerge v9.6.0 ('Slave To Your Mind') 64bit
Writing library : libebml v1.3.4 + libmatroska v1.4.5

Video
ID : 1
Format : HEVC
Format/Info : High Efficiency Video Coding
Format profile : Main [email protected]@Main
Codec ID : V_MPEGH/ISO/HEVC
Duration : 2 h 45 min
Bit rate : 5 175 kb/s
Width : 1 920 pixels
Height : 1 080 pixels
Display aspect ratio : 16:9
Frame rate mode : Constant
Frame rate : 23.976 (24000/1001) FPS
Color space : YUV
Chroma subsampling : 4:2:0
Bit depth : 10 bits
Bits/(Pixel*Frame) : 0.104
Stream size : 5.98 GiB (85%)
Writing library : x265 2.1+69-c97c64ab8b8e:[Windows][GCC 6.2.0][64 bit] 10bit
Encoding settings : cpuid=1173503 / frame-threads=2 / numa-pools=4 / wpp / no-pmode / no-pme / no-psnr / no-ssim / log-level=2 / input-csp=1 / input-res=1920x1080 / interlace=0 / total-frames=237912 / level-idc=0 / high-tier=1 / uhd-bd=0 / ref=4 / no-allow-non-conformance / no-repeat-headers / annexb / no-aud / no-hrd / info / hash=0 / no-temporal-layers / open-gop / min-keyint=23 / keyint=250 / bframes=4 / b-adapt=2 / b-pyramid / bframe-bias=0 / rc-lookahead=25 / lookahead-slices=4 / scenecut=40 / no-intra-refresh / ctu=64 / min-cu-size=8 / rect / no-amp / max-tu-size=32 / tu-inter-depth=1 / tu-intra-depth=1 / limit-tu=0 / rdoq-level=2 / signhide / no-tskip / nr-intra=0 / nr-inter=0 / no-constrained-intra / strong-intra-smoothing / max-merge=3 / limit-refs=3 / limit-modes / me=3 / subme=3 / merange=57 / temporal-mvp / weightp / no-weightb / no-analyze-data-pics / deblock=0:0 / sao / no-sao-non-deblock / rd=4 / no-early-skip / rskip / no-fast-intra / no-tskip-fast / no-cu-lossless / no-b-intra / rdpenalty=0 / psy-rd=2.00 / psy-rdoq=1.00 / no-rd-refine / analysis-mode=0 / no-lossless / cbqpoffs=0 / crqpoffs=0 / rc=crf / crf=18.0 / qcomp=0.60 / qpstep=4 / stats-write=0 / stats-read=0 / ipratio=1.40 / pbratio=1.30 / aq-mode=1 / aq-strength=1.00 / cutree / zone-count=0 / no-strict-cbr / qg-size=32 / no-rc-grain / qpmax=69 / qpmin=0 / sar=0 / overscan=0 / videoformat=5 / range=0 / colorprim=2 / transfer=2 / colormatrix=2 / chromaloc=0 / display-window=0 / max-cll=0,0 / min-luma=0 / max-luma=1023 / log2-max-poc-lsb=8 / vui-timing-info / vui-hrd-info / slices=1 / opt-qp-pps / opt-ref-list-length-pps / no-multi-pass-opt-rps / scenecut-bias=0.05
Default : Yes
Forced : No

Audio
ID : 2
Format : AAC
Format/Info : Advanced Audio Codec
Format profile : LC
Codec ID : A_AAC
Duration : 2 h 45 min
Bit rate : 916 kb/s
Channel(s) : 6 channels
Channel positions : Front: L C R, Side: L R, LFE
Sampling rate : 48.0 kHz
Frame rate : 46.875 FPS (1024 spf)
Compression mode : Lossy
Delay relative to video : 9 ms
Stream size : 1.06 GiB (15%)
Language : English
Default : No
Forced : No

Text
ID : 3
Format : PGS
Muxing mode : zlib
Codec ID : S_HDMV/PGS
Codec ID/Info : Picture based subtitle format used on BDs/HD-DVDs
Duration : 2 h 44 min
Bit rate : 10.8 kb/s
Count of elements : 4209
Stream size : 12.7 MiB (0%)
Language : English
Default : No
Forced : No

Menu
00:00:00.000 : en:Chapter 01
00:03:36.132 : en:Chapter 02
00:12:48.142 : en:Chapter 03
00:18:49.711 : en:Chapter 04
00:26:48.148 : en:Chapter 05
00:31:44.444 : en:Chapter 06
00:40:26.799 : en:Chapter 07
00:46:05.554 : en:Chapter 08
00:52:36.903 : en:Chapter 09
00:58:12.780 : en:Chapter 10
01:02:19.944 : en:Chapter 11
01:12:13.120 : en:Chapter 12
01:18:36.169 : en:Chapter 13
01:26:08.329 : en:Chapter 14
01:34:49.475 : en:Chapter 15
01:40:52.046 : en:Chapter 16
01:45:33.785 : en:Chapter 17
01:50:00.760 : en:Chapter 18
01:55:03.688 : en:Chapter 19
02:03:55.386 : en:Chapter 20
02:08:14.520 : en:Chapter 21
02:14:14.046 : en:Chapter 22
02:17:28.907 : en:Chapter 23
02:22:32.627 : en:Chapter 24
02:26:28.446 : en:Chapter 25
02:33:00.129 : en:Chapter 26
02:35:41.665 : en:Chapter 27
02:41:30.931 : en:Chapter 28




( Tags )





People also Search for: Django Unchained (2012) (1080p x265 HEVC 10bit AAC 5 1) [Prof]

  • • 1080p Django Unchained (2012) (1080p x265 HEVC 10bit AAC 5 1) [Prof] Torrent
  • • 720p Django Unchained (2012) (1080p x265 HEVC 10bit AAC 5 1) [Prof] DVDRip
  • • HD Django Unchained (2012) (1080p x265 HEVC 10bit AAC 5 1) [Prof]
  • • Dvix/Xvid Django Unchained (2012) (1080p x265 HEVC 10bit AAC 5 1) [Prof]
  • • Blu-ray Django Unchained (2012) (1080p x265 HEVC 10bit AAC 5 1) [Prof]

Recently Added Torrents

torrent name size age seed leech
439.81 MB 25 minutes 613 113
526.07 MB 25 minutes 125 431
3.8 GB 25 minutes 539 389
422.73 MB 25 minutes 751 347
6.8 GB 25 minutes 502 337