Loading...

Doctor Youve Got to Be Kidding 1967 HDTV x264-REGRET

seeders: 683
leechers: 497
Doctor Youve Got to Be Kidding 1967 HDTV x264-REGRET magnet link

Info Hash: 8193E24E83A46A4B5737AD65E2AE51DDF5A6B5BD
Loading...
Doctor Youve Got to Be Kidding 1967 HDTV x264-REGRET
  • Downloads 12
  • Added 1 week
  • Quality Good
  • Torrent ID 72147637078
  • Note if .torrent file deleted click magnet below
  • Download Magnet
Torrent Info:
• You can easily download Doctor Youve Got to Be Kidding 1967 HDTV x264-REGRET Torerent to your PC, MAC, Tablet, Mobile or any other devices.
• HD Quality Torrent Doctor Youve Got to Be Kidding 1967 HDTV x264-REGRET
• Your Support Keep WatchTorrentMovie.Us alive.

Torrent Files

Doctor Youve Got to Be Kidding 1967 HDTV x264-REGRET (Size: 665.0 MB)
  Doctor Youve Got to Be Kidding 1967 HDTV x264-REGRET 665.0 MB

Torrent Description



Doctor.Youve.Got.to.Be.Kidding.1967.HDTV.x264-REGRET

ImDb: http://www.imdb.com/title/tt0061585



Complete name : doctor.youve.got.to.be.kidding.1967.hdtv.x264-regret.mkv
Format : Matroska
Format version : Version 4 / Version 2
File size : 665 MiB
Duration : 1 h 34 min
Overall bit rate : 983 kb/s
Encoded date : UTC 2017-10-03 07:29:32
Writing application : mkvmerge v9.7.1 ('Pandemonium') 64bit
Writing library : libebml v1.3.4 + libmatroska v1.4.5

Video
ID : 1
Format : AVC
Format/Info : Advanced Video Codec
Format profile : [email protected]
Format settings, CABAC : Yes
Format settings, ReFrames : 5 frames
Codec ID : V_MPEG4/ISO/AVC
Duration : 1 h 34 min
Bit rate : 905 kb/s
Width : 720 pixels
Height : 300 pixels
Display aspect ratio : 2.40:1
Frame rate mode : Constant
Frame rate : 23.976 (24000/1001) FPS
Color space : YUV
Chroma subsampling : 4:2:0
Bit depth : 8 bits
Scan type : Progressive
Bits/(Pixel*Frame) : 0.175
Stream size : 612 MiB (92%)
Writing library : x264 core 152 r2851 ba24899
Encoding settings : cabac=1 / ref=5 / deblock=1:0:0 / analyse=0x3:0x113 / me=hex / subme=8 / psy=1 / psy_rd=1.00:0.00 / mixed_ref=1 / me_range=16 / chroma_me=1 / trellis=2 / 8x8dct=1 / cqm=0 / deadzone=21,11 / fast_pskip=1 / chroma_qp_offset=-2 / threads=9 / lookahead_threads=1 / sliced_threads=0 / nr=0 / decimate=1 / interlaced=0 / bluray_compat=0 / constrained_intra=0 / bframes=3 / b_pyramid=2 / b_adapt=1 / b_bias=0 / direct=3 / weightb=1 / open_gop=0 / weightp=2 / keyint=250 / keyint_min=23 / scenecut=40 / intra_refresh=0 / rc_lookahead=50 / rc=crf / mbtree=1 / crf=19.0 / qcomp=0.60 / qpmin=0 / qpmax=69 / qpstep=4 / ip_ratio=1.40 / aq=1:1.00
Default : Yes
Forced : No
Color range : Limited
Matrix coefficients : BT.709

Audio
ID : 2
Format : AAC
Format/Info : Advanced Audio Codec
Format profile : LC
Codec ID : A_AAC
Duration : 1 h 34 min
Bit rate : 75.9 kb/s
Channel(s) : 1 channel
Channel positions : Front: C
Sampling rate : 48.0 kHz
Frame rate : 46.875 FPS (1024 spf)
Compression mode : Lossy
Delay relative to video : 20 ms
Stream size : 51.3 MiB (8%)
Language : English
Default : Yes
Forced : No

Text
ID : 3
Format : UTF-8
Codec ID : S_TEXT/UTF8
Codec ID/Info : UTF-8 Plain Text
Duration : 1 h 34 min
Bit rate : 99 b/s
Count of elements : 1884
Stream size : 68.8 KiB (0%)
Language : English
Default : No
Forced : No






Click To View Screenshot

Click To View Screenshot

Click To View Screenshot




( Tags )





People also Search for: Doctor Youve Got to Be Kidding 1967 HDTV x264-REGRET

  • • 1080p Doctor Youve Got to Be Kidding 1967 HDTV x264-REGRET Torrent
  • • 720p Doctor Youve Got to Be Kidding 1967 HDTV x264-REGRET DVDRip
  • • HD Doctor Youve Got to Be Kidding 1967 HDTV x264-REGRET
  • • Dvix/Xvid Doctor Youve Got to Be Kidding 1967 HDTV x264-REGRET
  • • Blu-ray Doctor Youve Got to Be Kidding 1967 HDTV x264-REGRET

Recently Added Torrents

torrent name size age seed leech
1.5 GB 2 minutes 266 487
328.3 MB 2 minutes 283 269
191.3 MB 2 minutes 198 114
2.77 GB 2 minutes 632 293
556.2 MB 2 minutes 698 48