Loading...

How to Get Away with Murder S04E03 720p HDTV x264-AVS

seeders: 1
leechers: 474
How to Get Away with Murder S04E03 720p HDTV x264-AVS magnet link

Info Hash: 535070D51541EACD4FF38BAC2720261E1EBA357A
Loading...
How to Get Away with Murder S04E03 720p HDTV x264-AVS
  • Downloads 19
  • Added 6 days
  • Quality Good
  • Torrent ID 72147637053
  • Note if .torrent file deleted click magnet below
  • Download Magnet
Torrent Info:
• You can easily download How to Get Away with Murder S04E03 720p HDTV x264-AVS Torerent to your PC, MAC, Tablet, Mobile or any other devices.
• HD Quality Torrent How to Get Away with Murder S04E03 720p HDTV x264-AVS
• Your Support Keep WatchTorrentMovie.Us alive.

Torrent Files

How to Get Away with Murder S04E03 720p HDTV x264-AVS (Size: 1.0 GB)
  How to Get Away with Murder S04E03 720p HDTV x264-AVS 1.0 GB

Torrent Description



How.to.Get.Away.with.Murder.S04E03.720p.HDTV.x264-AVS



Complete name : How.to.Get.Away.with.Murder.S04E03.720p.HDTV.x264-AVS.mkv
Format : Matroska
Format version : Version 4 / Version 2
File size : 1.04 GiB
Duration : 41 min 18 s
Overall bit rate : 3 597 kb/s
Encoded date : UTC 2017-10-13 02:03:33
Writing application : FastLE v3.0.0 - AVS
Writing library : libx264 + libebml + libmatroska + libfastrar

Video
ID : 1
Format : AVC
Format/Info : Advanced Video Codec
Format profile : [email protected]
Format settings, CABAC : Yes
Format settings, ReFrames : 5 frames
Codec ID : V_MPEG4/ISO/AVC
Duration : 41 min 18 s
Bit rate : 3 142 kb/s
Width : 1 280 pixels
Height : 720 pixels
Display aspect ratio : 16:9
Frame rate mode : Constant
Frame rate : 23.976 (24000/1001) FPS
Color space : YUV
Chroma subsampling : 4:2:0
Bit depth : 8 bits
Scan type : Progressive
Bits/(Pixel*Frame) : 0.142
Stream size : 928 MiB (87%)
Writing library : x264 core 152 r2851 ba24899
Encoding settings : cabac=1 / ref=5 / deblock=1:0:0 / analyse=0x3:0x113 / me=hex / subme=8 / psy=1 / psy_rd=1.00:0.00 / mixed_ref=1 / me_range=16 / chroma_me=1 / trellis=2 / 8x8dct=1 / cqm=0 / deadzone=21,11 / fast_pskip=1 / chroma_qp_offset=-2 / threads=22 / lookahead_threads=3 / sliced_threads=0 / nr=0 / decimate=1 / interlaced=0 / bluray_compat=0 / constrained_intra=0 / bframes=3 / b_pyramid=2 / b_adapt=1 / b_bias=0 / direct=3 / weightb=1 / open_gop=0 / weightp=2 / keyint=250 / keyint_min=23 / scenecut=40 / intra_refresh=0 / rc_lookahead=50 / rc=crf / mbtree=1 / crf=18.0 / qcomp=0.60 / qpmin=0 / qpmax=69 / qpstep=4 / ip_ratio=1.40 / aq=1:1.00
Default : Yes
Forced : No
Color range : Limited
Matrix coefficients : BT.709

Audio
ID : 2
Format : AC-3
Format/Info : Audio Coding 3
Format settings, Endianness : Big
Codec ID : A_AC3
Duration : 41 min 18 s
Bit rate mode : Constant
Bit rate : 384 kb/s
Channel(s) : 6 channels
Channel positions : Front: L C R, Side: L R, LFE
Sampling rate : 48.0 kHz
Frame rate : 31.250 FPS (1536 spf)
Bit depth : 16 bits
Compression mode : Lossy
Stream size : 113 MiB (11%)
Service kind : Complete Main
Default : Yes
Forced : No






Click To View Screenshot

Click To View Screenshot

Click To View Screenshot




( Tags )





People also Search for: How to Get Away with Murder S04E03 720p HDTV x264-AVS

  • • 1080p How to Get Away with Murder S04E03 720p HDTV x264-AVS Torrent
  • • 720p How to Get Away with Murder S04E03 720p HDTV x264-AVS DVDRip
  • • HD How to Get Away with Murder S04E03 720p HDTV x264-AVS
  • • Dvix/Xvid How to Get Away with Murder S04E03 720p HDTV x264-AVS
  • • Blu-ray How to Get Away with Murder S04E03 720p HDTV x264-AVS

Recently Added Torrents

torrent name size age seed leech

Posted by   Admin  in 
1 year 51 474
83.38 MB 4 minutes 144 422
701.9 MB 4 minutes 170 500
690.6 MB 4 minutes 280 9
251.23 MB 4 minutes 188 64