Loading...

I.Give.It.A.Year.2013.720p.BluRay.x264-x0r

seeders: 237
leechers: 259
I.Give.It.A.Year.2013.720p.BluRay.x264-x0r magnet link

Info Hash: E134749BB034DEC401429160C9833C22483A7AD5
Loading...
I.Give.It.A.Year.2013.720p.BluRay.x264-x0r
  • Downloads 15
  • Added 5 days
  • Quality Good
  • Torrent ID 72147636872
  • Note if .torrent file deleted click magnet below
  • Download Magnet
Torrent Info:
• You can easily download I.Give.It.A.Year.2013.720p.BluRay.x264-x0r Torerent to your PC, MAC, Tablet, Mobile or any other devices.
• HD Quality Torrent I.Give.It.A.Year.2013.720p.BluRay.x264-x0r
• Your Support Keep WatchTorrentMovie.Us alive.

Torrent Files

I.Give.It.A.Year.2013.720p.BluRay.x264-x0r (Size: 2.17 GB)
  I.Give.It.A.Year.2013.720p.BluRay.x264-x0r 2.17 GB

Torrent Description


I.Give.It.A.Year.2013.720p.BluRay.x264-x0r

ImDb: http://www.imdb.com/title/tt2244901



Complete name                            : I.Give.It.A.Year.2013.720p.BluRay.x264-x0r.mkv
Format                                   : Matroska
Format version                           : Version 4 / Version 2
File size                                : 2.17 GiB
Duration                                 : 1 h 37 min
Overall bit rate                         : 3 193 kb/s
Movie name                               : I.Give.It.A.Year.2013.720p.BluRay.x264-x0r
Encoded date                             : UTC 2017-10-12 17:38:17
Writing application                      : mkvmerge v7.7.0 ('Six Voices') 64bit built on Mar  1 2015 01:50:05
Writing library                          : libebml v1.3.1 + libmatroska v1.4.2

Video
ID                                       : 1
Format                                   : AVC
Format/Info                              : Advanced Video Codec
Format profile                           :
Format settings, CABAC                   : Yes
Format settings, ReFrames                : 9 frames
Codec ID                                 : V_MPEG4/ISO/AVC
Duration                                 : 1 h 37 min
Bit rate                                 : 2 560 kb/s
Width                                    : 1 280 pixels
Height                                   : 720 pixels
Display aspect ratio                     : 16:9
Frame rate mode                          : Constant
Frame rate                               : 23.976 (24000/1001) FPS
Color space                              : YUV
Chroma subsampling                       : 4:2:0
Bit depth                                : 8 bits
Scan type                                : Progressive
Bits/(Pixel*Frame)                       : 0.116
Stream size                              : 1.74 GiB (80%)
Writing library                          : x264 core 130 r2273 b3065e6
Encoding settings                        : cabac=1 / ref=9 / deblock=1:-3:-3 / analyse=0x3:0x133 / me=umh / subme=10 / psy=1 / psy_rd=1.00:0.25 / mixed_ref=0 / me_range=32 / chroma_me=1 / trellis=2 / 8x8dct=1 / cqm=0 / deadzone=6,6 / fast_pskip=0 / chroma_qp_offset=-4 / threads=12 / lookahead_threads=1 / sliced_threads=0 / nr=0 / decimate=1 / interlaced=0 / bluray_compat=0 / constrained_intra=0 / bframes=5 / b_pyramid=2 / b_adapt=2 / b_bias=0 / direct=3 / weightb=1 / open_gop=0 / weightp=2 / keyint=240 / keyint_min=24 / scenecut=40 / intra_refresh=0 / rc_lookahead=60 / rc=2pass / mbtree=1 / bitrate=2560 / ratetol=1.0 / qcomp=0.00 / qpmin=0 / qpmax=69 / qpstep=4 / cplxblur=20.0 / qblur=0.5 / vbv_maxrate=20000 / vbv_bufsize=25000 / nal_hrd=none / ip_ratio=1.10 / aq=1:1.00
Language                                 : English
Default                                  : Yes
Forced                                   : No
Color range                              : Limited
Color primaries                          : BT.709
Transfer characteristics                 : BT.709
Matrix coefficients                      : BT.709

Audio #1
ID                                       : 2
Format                                   : AC-3
Format/Info                              : Audio Coding 3
Format settings, Endianness              : Big
Codec ID                                 : A_AC3
Duration                                 : 1 h 37 min
Bit rate mode                            : Constant
Bit rate                                 : 448 kb/s
Channel(s)                               : 6 channels
Channel positions                        : Front: L C R, Side: L R, LFE
Sampling rate                            : 48.0 kHz
Frame rate                               : 31.250 FPS (1536 spf)
Bit depth                                : 16 bits
Compression mode                         : Lossy
Stream size                              : 312 MiB (14%)
Title                                    : Surround
Language                                 : English
Service kind                             : Complete Main
Default                                  : Yes
Forced                                   : No

Audio #2
ID                                       : 3
Format                                   : AC-3
Format/Info                              : Audio Coding 3
Format settings, Endianness              : Big
Codec ID                                 : A_AC3
Duration                                 : 1 h 37 min
Bit rate mode                            : Constant
Bit rate                                 : 192 kb/s
Channel(s)                               : 2 channels
Channel positions                        : Front: L R
Sampling rate                            : 48.0 kHz
Frame rate                               : 31.250 FPS (1536 spf)
Bit depth                                : 16 bits
Compression mode                         : Lossy
Stream size                              : 134 MiB (6%)
Title                                    : Commentary
Language                                 : English
Service kind                             : Complete Main
Default                                  : No
Forced                                   : No

Text
ID                                       : 4
Format                                   : UTF-8
Codec ID                                 : S_TEXT/UTF8
Codec ID/Info                            : UTF-8 Plain Text
Duration                                 : 1 h 36 min
Bit rate                                 : 92 b/s
Count of elements                        : 1861
Stream size                              : 65.7 KiB (0%)
Language                                 : English
Default                                  : Yes
Forced                                   : No

Menu
00:00:00.000                             : en:I Do
00:07:46.633                             : en:First Year
00:15:35.893                             : en:A Bright Future
00:25:01.625                             : en:Guy
00:31:56.081                             : en:Getting To Know You
00:40:40.396                             : en:What Does She Like?
00:48:18.562                             : en:Twinkly
00:56:08.865                             : en:Family
01:04:30.366                             : en:That's Marriage
01:12:30.763                             : en:Committed
01:19:10.537                             : en:Happy Anniversary
01:27:15.689                             : en:End Credits






Click To View Screenshot

Click To View Screenshot

Click To View Screenshot

( Tags )





People also Search for: I.Give.It.A.Year.2013.720p.BluRay.x264-x0r

  • • 1080p I.Give.It.A.Year.2013.720p.BluRay.x264-x0r Torrent
  • • 720p I.Give.It.A.Year.2013.720p.BluRay.x264-x0r DVDRip
  • • HD I.Give.It.A.Year.2013.720p.BluRay.x264-x0r
  • • Dvix/Xvid I.Give.It.A.Year.2013.720p.BluRay.x264-x0r
  • • Blu-ray I.Give.It.A.Year.2013.720p.BluRay.x264-x0r

Recently Added Torrents

torrent name size age seed leech
439.81 MB 13 minutes 644 306
526.07 MB 13 minutes 182 190
3.8 GB 13 minutes 268 44
422.73 MB 13 minutes 94 367
6.8 GB 13 minutes 304 12