Loading...

Ice Road Truckers S11E06 720p HDTV x264-KILLERS

seeders: 525
leechers: 227
Ice Road Truckers S11E06 720p HDTV x264-KILLERS magnet link

Info Hash: 90A29BDF5880477D940FFEC46746B41FD3F98EBC
Loading...
Ice Road Truckers S11E06 720p HDTV x264-KILLERS
  • Downloads 11
  • Added 5 days
  • Quality Good
  • Torrent ID 72147637074
  • Note if .torrent file deleted click magnet below
  • Download Magnet
Torrent Info:
• You can easily download Ice Road Truckers S11E06 720p HDTV x264-KILLERS Torerent to your PC, MAC, Tablet, Mobile or any other devices.
• HD Quality Torrent Ice Road Truckers S11E06 720p HDTV x264-KILLERS
• Your Support Keep WatchTorrentMovie.Us alive.

Torrent Files

Ice Road Truckers S11E06 720p HDTV x264-KILLERS (Size: 1.2 GB)
  Ice Road Truckers S11E06 720p HDTV x264-KILLERS 1.2 GB

Torrent Description



Ice.Road.Truckers.S11E06.720p.HDTV.x264-KILLERS



Complete name : Ice.Road.Truckers.S11E06.720p.HDTV.x264-KILLERS.mkv
Format : Matroska
Format version : Version 4 / Version 2
File size : 1.24 GiB
Duration : 40 min 58 s
Overall bit rate : 4 338 kb/s
Encoded date : UTC 2017-10-13 04:20:01
Writing application : mkvmerge v9.0.1 ('Obstacles') 64bit
Writing library : libebml v1.3.3 + libmatroska v1.4.4

Video
ID : 1
Format : AVC
Format/Info : Advanced Video Codec
Format profile : [email protected]
Format settings, CABAC : Yes
Format settings, ReFrames : 5 frames
Codec ID : V_MPEG4/ISO/AVC
Duration : 40 min 58 s
Bit rate : 3 868 kb/s
Width : 1 280 pixels
Height : 720 pixels
Display aspect ratio : 16:9
Frame rate mode : Constant
Frame rate : 29.970 (30000/1001) FPS
Color space : YUV
Chroma subsampling : 4:2:0
Bit depth : 8 bits
Scan type : Progressive
Bits/(Pixel*Frame) : 0.140
Stream size : 1.11 GiB (89%)
Writing library : x264 core 152 r2851 ba24899
Encoding settings : cabac=1 / ref=5 / deblock=1:0:0 / analyse=0x3:0x113 / me=hex / subme=8 / psy=1 / psy_rd=1.00:0.00 / mixed_ref=1 / me_range=16 / chroma_me=1 / trellis=2 / 8x8dct=1 / cqm=0 / deadzone=21,11 / fast_pskip=1 / chroma_qp_offset=-2 / threads=22 / lookahead_threads=3 / sliced_threads=0 / nr=0 / decimate=1 / interlaced=0 / bluray_compat=0 / constrained_intra=0 / bframes=3 / b_pyramid=2 / b_adapt=1 / b_bias=0 / direct=3 / weightb=1 / open_gop=0 / weightp=2 / keyint=250 / keyint_min=25 / scenecut=40 / intra_refresh=0 / rc_lookahead=50 / rc=crf / mbtree=1 / crf=20.0 / qcomp=0.60 / qpmin=0 / qpmax=69 / qpstep=4 / ip_ratio=1.40 / aq=1:1.00
Default : Yes
Forced : No
Color range : Limited
Matrix coefficients : BT.709

Audio
ID : 2
Format : AC-3
Format/Info : Audio Coding 3
Format settings, Endianness : Big
Codec ID : A_AC3
Duration : 40 min 58 s
Bit rate mode : Constant
Bit rate : 384 kb/s
Channel(s) : 6 channels
Channel positions : Front: L C R, Side: L R, LFE
Sampling rate : 48.0 kHz
Frame rate : 31.250 FPS (1536 spf)
Bit depth : 16 bits
Compression mode : Lossy
Stream size : 113 MiB (9%)
Service kind : Complete Main
Default : Yes
Forced : No






Click To View Screenshot

Click To View Screenshot

Click To View Screenshot




( Tags )





People also Search for: Ice Road Truckers S11E06 720p HDTV x264-KILLERS

  • • 1080p Ice Road Truckers S11E06 720p HDTV x264-KILLERS Torrent
  • • 720p Ice Road Truckers S11E06 720p HDTV x264-KILLERS DVDRip
  • • HD Ice Road Truckers S11E06 720p HDTV x264-KILLERS
  • • Dvix/Xvid Ice Road Truckers S11E06 720p HDTV x264-KILLERS
  • • Blu-ray Ice Road Truckers S11E06 720p HDTV x264-KILLERS

Recently Added Torrents

torrent name size age seed leech
83.38 MB 13 minutes 621 118
701.9 MB 13 minutes 96 111
690.6 MB 13 minutes 631 6
251.23 MB 13 minutes 22 175
2.8 GB 13 minutes 616 26