Loading...

Lore.S01E05.720p.WEB.h264-CONVOY

seeders: 671
leechers: 84
Lore.S01E05.720p.WEB.h264-CONVOY magnet link

Info Hash: 290779DE027DC4BB571ABCEA4A28A5D9100FFB8A
Loading...
Lore.S01E05.720p.WEB.h264-CONVOY
  • Downloads 11
  • Added 5 days
  • Quality Good
  • Torrent ID 72147636953
  • Note if .torrent file deleted click magnet below
  • Download Magnet
Torrent Info:
• You can easily download Lore.S01E05.720p.WEB.h264-CONVOY Torerent to your PC, MAC, Tablet, Mobile or any other devices.
• HD Quality Torrent Lore.S01E05.720p.WEB.h264-CONVOY
• Your Support Keep WatchTorrentMovie.Us alive.

Torrent Files

Lore.S01E05.720p.WEB.h264-CONVOY (Size: 803.76 MB)
  Lore.S01E05.720p.WEB.h264-CONVOY 803.76 MB

Torrent Description


Lore.S01E05.720p.WEB.h264-CONVOY



Complete name                            : lore.s01e05.720p.web.h264-convoy.mkv
Format                                   : Matroska
Format version                           : Version 4 / Version 2
File size                                : 804 MiB
Duration                                 : 34 min 43 s
Overall bit rate mode                    : Variable
Overall bit rate                         : 3 236 kb/s
Encoded date                             : UTC 2017-10-12 21:18:21
Writing application                      : mkvmerge v11.0.0 ('Alive') 64bit
Writing library                          : libebml v1.3.4 + libmatroska v1.4.5

Video
ID                                       : 1
Format                                   : AVC
Format/Info                              : Advanced Video Codec
Format profile                           :
Format settings, CABAC                   : Yes
Format settings, ReFrames                : 5 frames
Codec ID                                 : V_MPEG4/ISO/AVC
Duration                                 : 34 min 43 s
Bit rate mode                            : Variable
Bit rate                                 : 2 594 kb/s
Maximum bit rate                         : 4 500 kb/s
Width                                    : 1 280 pixels
Height                                   : 720 pixels
Display aspect ratio                     : 16:9
Frame rate mode                          : Constant
Frame rate                               : 23.976 (24000/1001) FPS
Color space                              : YUV
Chroma subsampling                       : 4:2:0
Bit depth                                : 8 bits
Scan type                                : Progressive
Bits/(Pixel*Frame)                       : 0.117
Stream size                              : 644 MiB (80%)
Default                                  : Yes
Forced                                   : No
Color range                              : Limited
Color primaries                          : BT.709
Transfer characteristics                 : BT.709
Matrix coefficients                      : BT.709

Audio
ID                                       : 2
Format                                   : E-AC-3
Format/Info                              : Enhanced Audio Coding 3
Format settings, Endianness              : Big
Codec ID                                 : A_EAC3
Duration                                 : 34 min 43 s
Bit rate mode                            : Constant
Bit rate                                 : 640 kb/s
Channel(s)                               : 6 channels
Channel positions                        : Front: L C R, Side: L R, LFE
Sampling rate                            : 48.0 kHz
Frame rate                               : 187.500 FPS (256 spf)
Compression mode                         : Lossy
Stream size                              : 159 MiB (20%)
Language                                 : English
Service kind                             : Complete Main
Default                                  : Yes
Forced                                   : No

Text
ID                                       : 3
Format                                   : UTF-8
Codec ID                                 : S_TEXT/UTF8
Codec ID/Info                            : UTF-8 Plain Text
Duration                                 : 33 min 10 s
Bit rate                                 : 55 b/s
Count of elements                        : 487
Stream size                              : 13.5 KiB (0%)
Title                                    : English
Language                                 : English
Default                                  : No
Forced                                   : No






Click To View Screenshot

Click To View Screenshot

Click To View Screenshot

( Tags )





People also Search for: Lore.S01E05.720p.WEB.h264-CONVOY

  • • 1080p Lore.S01E05.720p.WEB.h264-CONVOY Torrent
  • • 720p Lore.S01E05.720p.WEB.h264-CONVOY DVDRip
  • • HD Lore.S01E05.720p.WEB.h264-CONVOY
  • • Dvix/Xvid Lore.S01E05.720p.WEB.h264-CONVOY
  • • Blu-ray Lore.S01E05.720p.WEB.h264-CONVOY

Recently Added Torrents

torrent name size age seed leech
1.40 GB 3 minutes 472 6
557.2 MB 3 minutes 205 165
1.1 GB 3 minutes 570 335
652.36 MB 3 minutes 354 219
441.7 MB 3 minutes 552 311