Loading...

Lore S01E05 WEB h264-CONVOY

seeders: 30
leechers: 8
Lore S01E05 WEB h264-CONVOY magnet link

Info Hash: AADBBDF9F65924437F77A41322B6DBAEDE997D28
Loading...
Lore S01E05 WEB h264-CONVOY
  • Downloads 10
  • Added 5 days
  • Quality Good
  • Torrent ID 72147636904
  • Note if .torrent file deleted click magnet below
  • Download Magnet
Torrent Info:
• You can easily download Lore S01E05 WEB h264-CONVOY Torerent to your PC, MAC, Tablet, Mobile or any other devices.
• HD Quality Torrent Lore S01E05 WEB h264-CONVOY
• Your Support Keep WatchTorrentMovie.Us alive.

Torrent Files

Lore S01E05 WEB h264-CONVOY (Size: 246.2 MB)
  Lore S01E05 WEB h264-CONVOY 246.2 MB

Torrent Description



Lore.S01E05.WEB.h264-CONVOY



Complete name : lore.s01e05.web.h264-convoy.mkv
Format : Matroska
Format version : Version 4 / Version 2
File size : 246 MiB
Duration : 34 min 43 s
Overall bit rate mode : Variable
Overall bit rate : 991 kb/s
Encoded date : UTC 2017-10-12 21:41:15
Writing application : mkvmerge v16.0.0 ('Protest') 64-bit
Writing library : libebml v1.3.5 + libmatroska v1.4.8

Video
ID : 1
Format : AVC
Format/Info : Advanced Video Codec
Format profile : [email protected]
Format settings, CABAC : Yes
Format settings, ReFrames : 5 frames
Codec ID : V_MPEG4/ISO/AVC
Duration : 34 min 43 s
Bit rate mode : Variable
Bit rate : 863 kb/s
Maximum bit rate : 2 400 kb/s
Width : 720 pixels
Height : 480 pixels
Display aspect ratio : 16:9
Frame rate mode : Constant
Frame rate : 23.976 (24000/1001) FPS
Color space : YUV
Chroma subsampling : 4:2:0
Bit depth : 8 bits
Scan type : Progressive
Bits/(Pixel*Frame) : 0.104
Stream size : 214 MiB (87%)
Default : Yes
Forced : No
Color range : Limited
Color primaries : BT.709
Transfer characteristics : BT.709
Matrix coefficients : BT.709

Audio
ID : 2
Format : AAC
Format/Info : Advanced Audio Codec
Format profile : LC
Codec ID : A_AAC
Duration : 34 min 43 s
Bit rate : 125 kb/s
Channel(s) : 2 channels
Channel positions : Front: L R
Sampling rate : 48.0 kHz
Frame rate : 46.875 FPS (1024 spf)
Compression mode : Lossy
Stream size : 31.1 MiB (13%)
Language : English
Default : Yes
Forced : No

Text
ID : 3
Format : UTF-8
Codec ID : S_TEXT/UTF8
Codec ID/Info : UTF-8 Plain Text
Duration : 33 min 10 s
Bit rate : 55 b/s
Count of elements : 487
Stream size : 13.5 KiB (0%)
Title : English
Language : English
Default : No
Forced : No






Click To View Screenshot

Click To View Screenshot

Click To View Screenshot




( Tags )





People also Search for: Lore S01E05 WEB h264-CONVOY

  • • 1080p Lore S01E05 WEB h264-CONVOY Torrent
  • • 720p Lore S01E05 WEB h264-CONVOY DVDRip
  • • HD Lore S01E05 WEB h264-CONVOY
  • • Dvix/Xvid Lore S01E05 WEB h264-CONVOY
  • • Blu-ray Lore S01E05 WEB h264-CONVOY

Recently Added Torrents

torrent name size age seed leech
439.81 MB 28 seconds 538 109
526.07 MB 28 seconds 690 454
3.8 GB 32 seconds 690 451
422.73 MB 28 seconds 533 194
6.8 GB 31 seconds 164 365