Loading...

Lore S01E06 WEB h264-CONVOY

seeders: 226
leechers: 296
Lore S01E06 WEB h264-CONVOY magnet link

Info Hash: 09A982302BC59ABAFAFD99BFE9F7A057A8793D1B
Loading...
Lore S01E06 WEB h264-CONVOY
  • Downloads 11
  • Added 1 week
  • Quality Good
  • Torrent ID 72147636901
  • Note if .torrent file deleted click magnet below
  • Download Magnet
Torrent Info:
• You can easily download Lore S01E06 WEB h264-CONVOY Torerent to your PC, MAC, Tablet, Mobile or any other devices.
• HD Quality Torrent Lore S01E06 WEB h264-CONVOY
• Your Support Keep WatchTorrentMovie.Us alive.

Torrent Files

Lore S01E06 WEB h264-CONVOY (Size: 239.0 MB)
  Lore S01E06 WEB h264-CONVOY 239.0 MB

Torrent Description



Lore.S01E06.WEB.h264-CONVOY



Complete name : lore.s01e06.web.h264-convoy.mkv
Format : Matroska
Format version : Version 4 / Version 2
File size : 239 MiB
Duration : 40 min 42 s
Overall bit rate mode : Variable
Overall bit rate : 821 kb/s
Encoded date : UTC 2017-10-12 21:39:48
Writing application : mkvmerge v16.0.0 ('Protest') 64-bit
Writing library : libebml v1.3.5 + libmatroska v1.4.8

Video
ID : 1
Format : AVC
Format/Info : Advanced Video Codec
Format profile : [email protected]
Format settings, CABAC : Yes
Format settings, ReFrames : 5 frames
Codec ID : V_MPEG4/ISO/AVC
Duration : 40 min 42 s
Bit rate mode : Variable
Bit rate : 693 kb/s
Maximum bit rate : 2 400 kb/s
Width : 720 pixels
Height : 480 pixels
Display aspect ratio : 16:9
Frame rate mode : Constant
Frame rate : 23.976 (24000/1001) FPS
Color space : YUV
Chroma subsampling : 4:2:0
Bit depth : 8 bits
Scan type : Progressive
Bits/(Pixel*Frame) : 0.084
Stream size : 202 MiB (84%)
Default : Yes
Forced : No
Color range : Limited
Color primaries : BT.709
Transfer characteristics : BT.709
Matrix coefficients : BT.709

Audio
ID : 2
Format : AAC
Format/Info : Advanced Audio Codec
Format profile : LC
Codec ID : A_AAC
Duration : 40 min 42 s
Bit rate : 125 kb/s
Channel(s) : 2 channels
Channel positions : Front: L R
Sampling rate : 48.0 kHz
Frame rate : 46.875 FPS (1024 spf)
Compression mode : Lossy
Stream size : 36.5 MiB (15%)
Language : English
Default : Yes
Forced : No

Text
ID : 3
Format : UTF-8
Codec ID : S_TEXT/UTF8
Codec ID/Info : UTF-8 Plain Text
Duration : 39 min 6 s
Bit rate : 58 b/s
Count of elements : 535
Stream size : 16.6 KiB (0%)
Title : English
Language : English
Default : No
Forced : No






Click To View Screenshot

Click To View Screenshot

Click To View Screenshot




( Tags )





People also Search for: Lore S01E06 WEB h264-CONVOY

  • • 1080p Lore S01E06 WEB h264-CONVOY Torrent
  • • 720p Lore S01E06 WEB h264-CONVOY DVDRip
  • • HD Lore S01E06 WEB h264-CONVOY
  • • Dvix/Xvid Lore S01E06 WEB h264-CONVOY
  • • Blu-ray Lore S01E06 WEB h264-CONVOY

Recently Added Torrents

torrent name size age seed leech
666.5 MB 13 minutes 505 186
102.8 MB 13 minutes 135 216
9.8 GB 13 minutes 148 453
201.68 MB 13 minutes 514 372
7.9 GB 13 minutes 37 311