Loading...

Ned Kelly 2003 720p BluRay x264-x0r

seeders: 60
leechers: 436
Ned Kelly 2003 720p BluRay x264-x0r magnet link

Info Hash: C4A1E0787273EF94BEB54EAB0B97B043CB76E379
Loading...
Ned Kelly 2003 720p BluRay x264-x0r
  • Downloads 8
  • Added 1 week
  • Quality Good
  • Torrent ID 72147636889
  • Note if .torrent file deleted click magnet below
  • Download Magnet
Torrent Info:
• You can easily download Ned Kelly 2003 720p BluRay x264-x0r Torerent to your PC, MAC, Tablet, Mobile or any other devices.
• HD Quality Torrent Ned Kelly 2003 720p BluRay x264-x0r
• Your Support Keep WatchTorrentMovie.Us alive.

Torrent Files

Ned Kelly 2003 720p BluRay x264-x0r (Size: 2.3 GB)
  Ned Kelly 2003 720p BluRay x264-x0r 2.3 GB

Torrent Description



Ned.Kelly.2003.720p.BluRay.x264-x0r

ImDb: http://www.imdb.com/title/tt0277941



Complete name : Ned.Kelly.2003.720p.BluRay.x264-x0r.mkv
Format : Matroska
Format version : Version 4 / Version 2
File size : 2.31 GiB
Duration : 1 h 49 min
Overall bit rate : 3 010 kb/s
Movie name : Ned.Kelly.2003.720p.BluRay.x264-x0r
Encoded date : UTC 2017-10-12 20:33:45
Writing application : mkvmerge v7.7.0 ('Six Voices') 64bit built on Mar 1 2015 01:50:05
Writing library : libebml v1.3.1 + libmatroska v1.4.2

Video
ID : 1
Format : AVC
Format/Info : Advanced Video Codec
Format profile : [email protected]
Format settings, CABAC : Yes
Format settings, ReFrames : 9 frames
Codec ID : V_MPEG4/ISO/AVC
Duration : 1 h 49 min
Bit rate : 2 560 kb/s
Width : 1 280 pixels
Height : 720 pixels
Display aspect ratio : 16:9
Frame rate mode : Constant
Frame rate : 23.976 FPS
Color space : YUV
Chroma subsampling : 4:2:0
Bit depth : 8 bits
Scan type : Progressive
Bits/(Pixel*Frame) : 0.116
Stream size : 1.96 GiB (85%)
Writing library : x264 core 142 r2389 956c8d8
Encoding settings : cabac=1 / ref=9 / deblock=1:-3:-3 / analyse=0x3:0x133 / me=umh / subme=10 / psy=1 / psy_rd=1.20:0.25 / mixed_ref=0 / me_range=32 / chroma_me=1 / trellis=2 / 8x8dct=1 / cqm=0 / deadzone=21,11 / fast_pskip=0 / chroma_qp_offset=-4 / threads=12 / lookahead_threads=1 / sliced_threads=0 / nr=0 / decimate=1 / interlaced=0 / bluray_compat=0 / constrained_intra=0 / bframes=5 / b_pyramid=2 / b_adapt=2 / b_bias=0 / direct=3 / weightb=1 / open_gop=0 / weightp=2 / keyint=240 / keyint_min=24 / scenecut=40 / intra_refresh=0 / rc_lookahead=120 / rc=2pass / mbtree=1 / bitrate=2560 / ratetol=1.0 / qcomp=0.00 / qpmin=0 / qpmax=69 / qpstep=4 / cplxblur=20.0 / qblur=0.5 / vbv_maxrate=20000 / vbv_bufsize=25000 / nal_hrd=none / filler=0 / ip_ratio=1.10 / aq=1:1.20
Language : English
Default : Yes
Forced : No
Color range : Limited
Color primaries : BT.709
Transfer characteristics : BT.709
Matrix coefficients : BT.709

Audio
ID : 2
Format : AC-3
Format/Info : Audio Coding 3
Format settings, Endianness : Big
Codec ID : A_AC3
Duration : 1 h 49 min
Bit rate mode : Constant
Bit rate : 448 kb/s
Channel(s) : 6 channels
Channel positions : Front: L C R, Side: L R, LFE
Sampling rate : 48.0 kHz
Frame rate : 31.250 FPS (1536 spf)
Bit depth : 16 bits
Compression mode : Lossy
Delay relative to video : -5 ms
Stream size : 352 MiB (15%)
Title : Surround
Language : English
Service kind : Complete Main
Default : Yes
Forced : No

Text
ID : 3
Format : UTF-8
Codec ID : S_TEXT/UTF8
Codec ID/Info : UTF-8 Plain Text
Duration : 1 h 45 min
Bit rate : 46 b/s
Count of elements : 1212
Stream size : 35.8 KiB (0%)
Language : English
Default : Yes
Forced : No

Menu
00:00:00.000 : :Chapter 1
00:11:00.510 : :Chapter 2
00:16:06.107 : :Chapter 3
00:22:02.463 : :Chapter 4
00:33:10.422 : :Chapter 5
00:44:22.635 : :Chapter 6
00:51:32.440 : :Chapter 7
00:56:28.235 : :Chapter 8
01:12:18.560 : :Chapter 9
01:22:39.221 : :Chapter 10
01:38:29.546 : :Chapter 11
01:44:24.066 : :Chapter 12






Click To View Screenshot

Click To View Screenshot

Click To View Screenshot




( Tags )





People also Search for: Ned Kelly 2003 720p BluRay x264-x0r

  • • 1080p Ned Kelly 2003 720p BluRay x264-x0r Torrent
  • • 720p Ned Kelly 2003 720p BluRay x264-x0r DVDRip
  • • HD Ned Kelly 2003 720p BluRay x264-x0r
  • • Dvix/Xvid Ned Kelly 2003 720p BluRay x264-x0r
  • • Blu-ray Ned Kelly 2003 720p BluRay x264-x0r

Recently Added Torrents

torrent name size age seed leech

Posted by   Admin  in 
1 year 356 488
1.3 GB 20 minutes 765 448
188.69 MB 20 minutes 226 257
144.0 MB 20 minutes 88 360
1.4 GB 20 minutes 527 485