Loading...

Pirates of the Caribbean: Dead Men Tell No Tales (2017) 1080p BD50 BluRay AVC DTS HDMA 5 1&7 1 - Tamil+Hindi+English+Russian+Chinese - MSub - Team TMR

seeders: 680
leechers: 44
Pirates of the Caribbean: Dead Men Tell No Tales (2017) 1080p BD50 BluRay AVC DTS HDMA 5 1&7 1 - Tamil+Hindi+English+Russian+Chinese - MSub - Team TMR magnet link

Info Hash: 3D226BDAB8C03D0BA1773F32310A62CF17231A1A
Loading...
Pirates of the Caribbean: Dead Men Tell No Tales (2017) 1080p BD50 BluRay AVC DTS HDMA 5 1&7 1 - Tamil+Hindi+English+Russian+Chinese - MSub - Team TMR
  • Downloads 10
  • Added 6 days
  • Quality Good
  • Torrent ID 72147637030
  • Note if .torrent file deleted click magnet below
  • Download Magnet
Torrent Info:
• You can easily download Pirates of the Caribbean: Dead Men Tell No Tales (2017) 1080p BD50 BluRay AVC DTS HDMA 5 1&7 1 - Tamil+Hindi+English+Russian+Chinese - MSub - Team TMR Torerent to your PC, MAC, Tablet, Mobile or any other devices.
• HD Quality Torrent Pirates of the Caribbean: Dead Men Tell No Tales (2017) 1080p BD50 BluRay AVC DTS HDMA 5 1&7 1 - Tamil+Hindi+English+Russian+Chinese - MSub - Team TMR
• Your Support Keep WatchTorrentMovie.Us alive.

Torrent Files

Pirates of the Caribbean: Dead Men Tell No Tales (2017) 1080p BD50 BluRay AVC DTS HDMA 5 1&7 1 - Tamil+Hindi+English+Russian+Chinese - MSub - Team TMR (Size: 43.2 GB)
  Pirates of the Caribbean: Dead Men Tell No Tales (2017) 1080p BD50 BluRay AVC DTS HDMA 5 1&7 1 - Tamil+Hindi+English+Russian+Chinese - MSub - Team TMR 43.2 GB

Torrent Description



[FONT="Century Gothic"][SIZE="5"][COLOR="Blue"]Pirates of the Caribbean: Dead Men Tell No Tales (2017) 1080p BD50 BluRay AVC DTS HDMA 5.1&7.1 - Tamil+Hindi+English+Russian+Chinese - MSub - Team TMR[/COLOR][/SIZE][/FONT]



Code:

General
ID : 1 (0x1)
Complete name : 00800.m2ts
Format : BDAV
Format/Info : Blu-ray Video
File size : 34.6 GiB
Duration : 2h 9mn
Overall bit rate mode : Variable
Overall bit rate : 38.4 Mbps
Maximum Overall bit rate : 35.5 Mbps

Video
ID : 4113 (0x1011)
Menu ID : 1 (0x1)
Format : AVC
Format/Info : Advanced Video Codec
Format profile : [email protected]
Format settings, CABAC : Yes
Format settings, ReFrames : 4 frames
Codec ID : 27
Duration : 2h 9mn
Bit rate mode : Variable
Maximum bit rate : 34.5 Mbps
Width : 1 920 pixels
Height : 1 080 pixels
Display aspect ratio : 16:9
Frame rate : 23.976 (24000/1001) fps
Color space : YUV
Chroma subsampling : 4:2:0
Bit depth : 8 bits
Scan type : Progressive

Audio #1
ID : 4352 (0x1100)
Menu ID : 1 (0x1)
Format : AC-3
Format/Info : Audio Coding 3
Mode extension : CM (complete main)
Format settings, Endianness : Big
Codec ID : 129
Duration : 2h 9mn
Bit rate mode : Constant
Bit rate : 384 Kbps
Channel(s) : 6 channels
Channel positions : Front: L C R, Side: L R, LFE
Sampling rate : 48.0 KHz
Frame rate : 31.250 fps (1536 spf)
Compression mode : Lossy
Stream size : 355 MiB (1%)
Language : Tamil

Audio #2
ID : 4353 (0x1101)
Menu ID : 1 (0x1)
Format : AC-3
Format/Info : Audio Coding 3
Mode extension : CM (complete main)
Format settings, Endianness : Big
Codec ID : 129
Duration : 2h 9mn
Bit rate mode : Constant
Bit rate : 640 Kbps
Channel(s) : 6 channels
Channel positions : Front: L C R, Side: L R, LFE
Sampling rate : 48.0 KHz
Frame rate : 31.250 fps (1536 spf)
Compression mode : Lossy
Stream size : 591 MiB (2%)
Language : Hindi

Audio #3
ID : 4354 (0x1102)
Menu ID : 1 (0x1)
Format : DTS
Format/Info : Digital Theater Systems
Format profile : MA / Core
Mode : 16
Format settings, Endianness : Big
Muxing mode : Stream extension
Codec ID : 134
Duration : 2h 9mn
Bit rate mode : Variable / Constant
Bit rate : Unknown / 1 509 Kbps
Channel(s) : 8 channels / 6 channels
Channel positions : Front: L C R, Side: L R, Back: L R, LFE / Front: L C R, Side: L R, LFE
Sampling rate : 48.0 KHz
Frame rate : 93.750 fps (512 spf)
Bit depth : 24 bits
Compression mode : Lossless / Lossy
Language : English

Audio #4
ID : 4355 (0x1103)
Menu ID : 1 (0x1)
Format : AC-3
Format/Info : Audio Coding 3
Mode extension : CM (complete main)
Format settings, Endianness : Big
Codec ID : 129
Duration : 2h 9mn
Bit rate mode : Constant
Bit rate : 320 Kbps
Channel(s) : 2 channels
Channel positions : Front: L R
Sampling rate : 48.0 KHz
Frame rate : 31.250 fps (1536 spf)
Compression mode : Lossy
Stream size : 296 MiB (1%)
Language : English

Audio #5
ID : 4356 (0x1104)
Menu ID : 1 (0x1)
Format : AC-3
Format/Info : Audio Coding 3
Mode extension : CM (complete main)
Format settings, Endianness : Big
Codec ID : 129
Duration : 2h 9mn
Bit rate mode : Constant
Bit rate : 640 Kbps
Channel(s) : 6 channels
Channel positions : Front: L C R, Side: L R, LFE
Sampling rate : 48.0 KHz
Frame rate : 31.250 fps (1536 spf)
Compression mode : Lossy
Stream size : 591 MiB (2%)
Language : Russian

Audio #6
ID : 4357 (0x1105)
Menu ID : 1 (0x1)
Format : AC-3
Format/Info : Audio Coding 3
Mode extension : CM (complete main)
Format settings, Endianness : Big
Codec ID : 129
Duration : 2h 9mn
Bit rate mode : Constant
Bit rate : 640 Kbps
Channel(s) : 6 channels
Channel positions : Front: L C R, Side: L R, LFE
Sampling rate : 48.0 KHz
Frame rate : 31.250 fps (1536 spf)
Compression mode : Lossy
Stream size : 591 MiB (2%)
Language : Chinese

Text #1
ID : 4608 (0x1200)
Menu ID : 1 (0x1)
Format : PGS
Codec ID : 144
Language : English

Text #2
ID : 4609 (0x1201)
Menu ID : 1 (0x1)
Format : PGS
Codec ID : 144
Language : Russian

Text #3
ID : 4610 (0x1202)
Menu ID : 1 (0x1)
Format : PGS
Codec ID : 144
Language : Chinese

Text #4
ID : 4611 (0x1203)
Menu ID : 1 (0x1)
Format : PGS
Codec ID : 144
Language : Chinese

Text #5
ID : 4612 (0x1204)
Menu ID : 1 (0x1)
Format : PGS
Codec ID : 144
Language : Chinese

Text #6
ID : 4613 (0x1205)
Menu ID : 1 (0x1)
Format : PGS
Codec ID : 144
Language : Korean

Text #7
ID : 4614 (0x1206)
Menu ID : 1 (0x1)
Format : PGS
Codec ID : 144
Language : Russian

Text #8
ID : 4615 (0x1207)
Menu ID : 1 (0x1)
Format : PGS
Codec ID : 144
Language : Chinese

Text #9
ID : 4616 (0x1208)
Menu ID : 1 (0x1)
Format : PGS
Codec ID : 144
Language : Chinese



[FONT="Century Gothic"][SIZE="5"][COLOR="Red"]Note[/COLOR][/SIZE][/FONT]


[FONT="Century Gothic"][SIZE="4"][COLOR="green"]Tamil+Hindi Audio Source:R3al_Star And 100% Audio WaterMark No[/COLOR][/SIZE][/FONT]


[FONT="Century Gothic"][SIZE="5"][COLOR="Red"]Seeed Seeed Seeed Seeed.Plz Seed back after Download else don't Download :thumbsdown:[/COLOR][/SIZE][/FONT]




( Tags )





People also Search for: Pirates of the Caribbean: Dead Men Tell No Tales (2017) 1080p BD50 BluRay AVC DT

  • • 1080p Pirates of the Caribbean: Dead Men Tell No Tales (2017) 1080p BD50 BluRay AVC DT Torrent
  • • 720p Pirates of the Caribbean: Dead Men Tell No Tales (2017) 1080p BD50 BluRay AVC DT DVDRip
  • • HD Pirates of the Caribbean: Dead Men Tell No Tales (2017) 1080p BD50 BluRay AVC DT
  • • Dvix/Xvid Pirates of the Caribbean: Dead Men Tell No Tales (2017) 1080p BD50 BluRay AVC DT
  • • Blu-ray Pirates of the Caribbean: Dead Men Tell No Tales (2017) 1080p BD50 BluRay AVC DT

Recently Added Torrents

torrent name size age seed leech
83.38 MB 5 minutes 36 385
701.9 MB 5 minutes 730 329
690.6 MB 5 minutes 377 407
251.23 MB 5 minutes 260 211
2.8 GB 5 minutes 238 71