Loading...

Smiley Face 2007 720p BluRay x264-x0r

seeders: 673
leechers: 307
Smiley Face 2007 720p BluRay x264-x0r magnet link

Info Hash: 40F3E4BA13251124A28C24F85529654164E4BE69
Loading...
Smiley Face 2007 720p BluRay x264-x0r
  • Downloads 11
  • Added 6 days
  • Quality Good
  • Torrent ID 72147636868
  • Note if .torrent file deleted click magnet below
  • Download Magnet
Torrent Info:
• You can easily download Smiley Face 2007 720p BluRay x264-x0r Torerent to your PC, MAC, Tablet, Mobile or any other devices.
• HD Quality Torrent Smiley Face 2007 720p BluRay x264-x0r
• Your Support Keep WatchTorrentMovie.Us alive.

Torrent Files

Smiley Face 2007 720p BluRay x264-x0r (Size: 1.8 GB)
  Smiley Face 2007 720p BluRay x264-x0r 1.8 GB

Torrent Description



Smiley.Face.2007.720p.BluRay.x264-x0r

ImDb: http://www.imdb.com/title/tt0780608



Complete name : Smiley.Face.2007.720p.BluRay.x264-x0r.mkv
Format : Matroska
Format version : Version 4 / Version 2
File size : 1.77 GiB
Duration : 1 h 24 min
Overall bit rate : 3 009 kb/s
Movie name : Smiley.Face.2007.720p.BluRay.x264-x0r
Encoded date : UTC 2017-10-12 19:52:24
Writing application : mkvmerge v7.7.0 ('Six Voices') 64bit built on Mar 1 2015 01:50:05
Writing library : libebml v1.3.1 + libmatroska v1.4.2

Video
ID : 1
Format : AVC
Format/Info : Advanced Video Codec
Format profile : [email protected]
Format settings, CABAC : Yes
Format settings, ReFrames : 8 frames
Codec ID : V_MPEG4/ISO/AVC
Duration : 1 h 24 min
Bit rate : 2 560 kb/s
Width : 1 280 pixels
Height : 720 pixels
Display aspect ratio : 16:9
Frame rate mode : Constant
Frame rate : 23.976 (24000/1001) FPS
Color space : YUV
Chroma subsampling : 4:2:0
Bit depth : 8 bits
Scan type : Progressive
Bits/(Pixel*Frame) : 0.116
Stream size : 1.51 GiB (85%)
Writing library : x264 core 142 r2389 956c8d8
Encoding settings : cabac=1 / ref=8 / deblock=1:-3:-3 / analyse=0x3:0x133 / me=umh / subme=10 / psy=1 / psy_rd=1.20:0.25 / mixed_ref=0 / me_range=32 / chroma_me=1 / trellis=2 / 8x8dct=1 / cqm=0 / deadzone=21,11 / fast_pskip=0 / chroma_qp_offset=-4 / threads=12 / lookahead_threads=1 / sliced_threads=0 / nr=0 / decimate=1 / interlaced=0 / bluray_compat=0 / constrained_intra=0 / bframes=4 / b_pyramid=2 / b_adapt=2 / b_bias=0 / direct=3 / weightb=1 / open_gop=0 / weightp=2 / keyint=240 / keyint_min=24 / scenecut=40 / intra_refresh=0 / rc_lookahead=120 / rc=2pass / mbtree=1 / bitrate=2560 / ratetol=1.0 / qcomp=0.00 / qpmin=0 / qpmax=69 / qpstep=4 / cplxblur=20.0 / qblur=0.5 / vbv_maxrate=20000 / vbv_bufsize=25000 / nal_hrd=none / filler=0 / ip_ratio=1.10 / aq=1:1.20
Language : English
Default : Yes
Forced : No
Color range : Limited
Color primaries : BT.709
Transfer characteristics : BT.709
Matrix coefficients : BT.709

Audio
ID : 2
Format : AC-3
Format/Info : Audio Coding 3
Format settings, Endianness : Big
Codec ID : A_AC3
Duration : 1 h 24 min
Bit rate mode : Constant
Bit rate : 448 kb/s
Channel(s) : 6 channels
Channel positions : Front: L C R, Side: L R, LFE
Sampling rate : 48.0 kHz
Frame rate : 31.250 FPS (1536 spf)
Bit depth : 16 bits
Compression mode : Lossy
Delay relative to video : -5 ms
Stream size : 270 MiB (15%)
Title : Surround
Language : English
Service kind : Complete Main
Default : Yes
Forced : No

Text
ID : 3
Format : UTF-8
Codec ID : S_TEXT/UTF8
Codec ID/Info : UTF-8 Plain Text
Duration : 1 h 20 min
Bit rate : 48 b/s
Count of elements : 1084
Stream size : 28.9 KiB (0%)
Language : English
Default : Yes
Forced : No






Click To View Screenshot

Click To View Screenshot

Click To View Screenshot




( Tags )





People also Search for: Smiley Face 2007 720p BluRay x264-x0r

  • • 1080p Smiley Face 2007 720p BluRay x264-x0r Torrent
  • • 720p Smiley Face 2007 720p BluRay x264-x0r DVDRip
  • • HD Smiley Face 2007 720p BluRay x264-x0r
  • • Dvix/Xvid Smiley Face 2007 720p BluRay x264-x0r
  • • Blu-ray Smiley Face 2007 720p BluRay x264-x0r

Recently Added Torrents

torrent name size age seed leech

Posted by   Admin  in 
1 year 244 331
83.38 MB 24 minutes 744 399
701.9 MB 24 minutes 235 269
690.6 MB 24 minutes 584 296
251.23 MB 24 minutes 105 374