Loading...

The Belko Experiment 2016 10bit hevc-d3g.

seeders: 236
leechers: 386
The Belko Experiment 2016 10bit hevc-d3g. magnet link

Info Hash: 8F15455C8D5520D8174D163465C8229F7542AD48
Loading...
The Belko Experiment 2016 10bit hevc-d3g.
  • Downloads 24
  • Added 1 week
  • Quality Good
  • Torrent ID 72147636210
  • Note if .torrent file deleted click magnet below
  • Download Magnet
Torrent Info:
• You can easily download The Belko Experiment 2016 10bit hevc-d3g. Torerent to your PC, MAC, Tablet, Mobile or any other devices.
• HD Quality Torrent The Belko Experiment 2016 10bit hevc-d3g.
• Your Support Keep WatchTorrentMovie.Us alive.

Torrent Files

The Belko Experiment 2016 10bit hevc-d3g. (Size: 1.88 GB)
  The Belko Experiment 2016 10bit hevc-d3g. 1.88 GB

Torrent Description


The Belko Experiment 2016 10bit hevc-d3g.

ImDb: http://www.imdb.com/title/tt1082807



Complete name                            : The Belko Experiment 2016 BluRay 10Bit 1080p DD5.1 H265-d3g.mkv
Format                                   : Matroska
Format version                           : Version 2
File size                                : 1.88 GiB
Duration                                 : 1 h 28 min
Overall bit rate                         : 3 042 kb/s
Movie name                               : The Belko Experiment 2016 BluRay 10Bit 1080p DD5.1 H265-d3g
Encoded date                             : UTC 2017-10-11 14:05:30
Writing application                      : DVDFab 10.0.6.2
Writing library                          : libebml v1.3.4 + libmatroska v1.4.5

Video
ID                                       : 1
Format                                   : HEVC
Format/Info                              : High Efficiency Video Coding
Format profile                           : Main @Main
Codec ID                                 : V_MPEGH/ISO/HEVC
Duration                                 : 1 h 28 min
Bit rate                                 : 2 585 kb/s
Width                                    : 1 920 pixels
Height                                   : 800 pixels
Display aspect ratio                     : 2.40:1
Frame rate mode                          : Constant
Frame rate                               : 23.976 (24000/1001) FPS
Color space                              : YUV
Chroma subsampling                       : 4:2:0
Bit depth                                : 10 bits
Bits/(Pixel*Frame)                       : 0.070
Stream size                              : 1.60 GiB (85%)
Default                                  : Yes
Forced                                   : No
Color range                              : Limited
Color primaries                          : BT.709
Transfer characteristics                 : BT.709
Matrix coefficients                      : BT.709

Audio
ID                                       : 2
Format                                   : AC-3
Format/Info                              : Audio Coding 3
Format settings, Endianness              : Big
Codec ID                                 : A_AC3
Duration                                 : 1 h 28 min
Bit rate mode                            : Constant
Bit rate                                 : 448 kb/s
Channel(s)                               : 6 channels
Channel positions                        : Front: L C R, Side: L R, LFE
Sampling rate                            : 48.0 kHz
Frame rate                               : 31.250 FPS (1536 spf)
Bit depth                                : 16 bits
Compression mode                         : Lossy
Stream size                              : 284 MiB (15%)
Language                                 : English
Service kind                             : Complete Main
Default                                  : Yes
Forced                                   : No

Text
ID                                       : 3
Format                                   : VobSub
Codec ID                                 : S_VOBSUB
Codec ID/Info                            : Picture based subtitle format used on DVDs
Duration                                 : 1 h 23 min
Bit rate                                 : 10.4 kb/s
Count of elements                        : 1341
Stream size                              : 6.24 MiB (0%)
Language                                 : English
Default                                  : No
Forced                                   : No

Menu
00:00:00.000                             : en:(01)00:00:00:000
00:02:30.275                             : en:(02)00:02:30:275
00:05:09.225                             : en:(03)00:05:09:225
00:09:11.300                             : en:(04)00:09:11:300
00:11:08.167                             : en:(05)00:11:08:167
00:13:56.377                             : en:(06)00:13:56:377
00:16:20.187                             : en:(07)00:16:20:187
00:19:04.017                             : en:(08)00:19:04:017
00:22:33.810                             : en:(09)00:22:33:810
00:24:38.602                             : en:(10)00:24:38:602
00:28:01.846                             : en:(11)00:28:01:846
00:30:22.278                             : en:(12)00:30:22:278
00:33:37.724                             : en:(13)00:33:37:724
00:37:02.595                             : en:(14)00:37:02:595
00:41:47.338                             : en:(15)00:41:47:338
00:44:12.399                             : en:(16)00:44:12:399
00:47:32.307                             : en:(17)00:47:32:307
00:50:14.511                             : en:(18)00:50:14:511
00:52:55.005                             : en:(19)00:52:55:005
00:56:36.726                             : en:(20)00:56:36:726
01:00:49.520                             : en:(21)01:00:49:520
01:02:57.356                             : en:(22)01:02:57:356
01:04:31.075                             : en:(23)01:04:31:075
01:07:54.945                             : en:(24)01:07:54:945
01:10:31.226                             : en:(25)01:10:31:226
01:15:09.838                             : en:(26)01:15:09:838
01:19:08.702                             : en:(27)01:19:08:702
01:24:23.933                             : en:(28)01:24:23:933
01:28:29.429                             : en:(29)01:28:29:429






Click To View Screenshot

Click To View Screenshot

Click To View Screenshot

( Tags )





People also Search for: The Belko Experiment 2016 10bit hevc-d3g.

  • • 1080p The Belko Experiment 2016 10bit hevc-d3g. Torrent
  • • 720p The Belko Experiment 2016 10bit hevc-d3g. DVDRip
  • • HD The Belko Experiment 2016 10bit hevc-d3g.
  • • Dvix/Xvid The Belko Experiment 2016 10bit hevc-d3g.
  • • Blu-ray The Belko Experiment 2016 10bit hevc-d3g.

Recently Added Torrents

torrent name size age seed leech

Posted by   Admin  in 
1 year 662 333
272.9 MB 31 seconds 399 436
52.31 MB 27 seconds 129 391
4.4 GB 31 seconds 362 215
1.5 GB 31 seconds 19 270