Loading...

The.Lego.Ninjago.Movie.2017.720p.HC.HDRip.X264.AC3-EVO

seeders: 240
leechers: 372
The.Lego.Ninjago.Movie.2017.720p.HC.HDRip.X264.AC3-EVO magnet link

Info Hash: 4641DEF32646085262914D5BBC7A7340945679F4
Loading...
The.Lego.Ninjago.Movie.2017.720p.HC.HDRip.X264.AC3-EVO
  • Downloads 15
  • Added 5 days
  • Quality Good
  • Torrent ID 72147636849
  • Note if .torrent file deleted click magnet below
  • Download Magnet
Torrent Info:
• You can easily download The.Lego.Ninjago.Movie.2017.720p.HC.HDRip.X264.AC3-EVO Torerent to your PC, MAC, Tablet, Mobile or any other devices.
• HD Quality Torrent The.Lego.Ninjago.Movie.2017.720p.HC.HDRip.X264.AC3-EVO
• Your Support Keep WatchTorrentMovie.Us alive.

Torrent Files

The.Lego.Ninjago.Movie.2017.720p.HC.HDRip.X264.AC3-EVO (Size: 2.41 GB)
  The.Lego.Ninjago.Movie.2017.720p.HC.HDRip.X264.AC3-EVO 2.41 GB

Torrent Description


The.Lego.Ninjago.Movie.2017.720p.HC.HDRip.X264.AC3-EVO

ImDb: http://www.imdb.com/title/tt3014284



Complete name                            : The.Lego.Ninjago.Movie.2017.720p.HC.HDRip.X264.AC3-EVO.mkv
Format                                   : Matroska
Format version                           : Version 4 / Version 2
File size                                : 2.41 GiB
Duration                                 : 1 h 37 min
Overall bit rate                         : 3 552 kb/s
Movie name                               : EVO
Encoded date                             : UTC 2017-10-12 16:53:06
Writing application                      : mkvmerge v6.7.0 ('Back to the Ground') 64bit built on Jan  8 2014 15:10:52
Writing library                          : libebml v1.3.0 + libmatroska v1.4.1

Video
ID                                       : 1
Format                                   : AVC
Format/Info                              : Advanced Video Codec
Format profile                           :
Format settings, CABAC                   : Yes
Format settings, ReFrames                : 4 frames
Codec ID                                 : V_MPEG4/ISO/AVC
Duration                                 : 1 h 37 min
Bit rate                                 : 3 379 kb/s
Width                                    : 1 280 pixels
Height                                   : 528 pixels
Display aspect ratio                     : 2.40:1
Frame rate mode                          : Constant
Frame rate                               : 25.000 FPS
Color space                              : YUV
Chroma subsampling                       : 4:2:0
Bit depth                                : 8 bits
Scan type                                : Progressive
Bits/(Pixel*Frame)                       : 0.200
Stream size                              : 2.23 GiB (93%)
Writing library                          : x264 core 142 r2479 dd79a61
Encoding settings                        : cabac=1 / ref=1 / deblock=1:0:0 / analyse=0x3:0x113 / me=hex / subme=2 / psy=1 / psy_rd=1.00:0.00 / mixed_ref=0 / me_range=16 / chroma_me=1 / trellis=0 / 8x8dct=1 / cqm=0 / deadzone=21,11 / fast_pskip=1 / chroma_qp_offset=0 / threads=12 / lookahead_threads=4 / sliced_threads=0 / nr=0 / decimate=1 / interlaced=0 / bluray_compat=0 / constrained_intra=0 / bframes=3 / b_pyramid=2 / b_adapt=1 / b_bias=0 / direct=1 / weightb=1 / open_gop=0 / weightp=1 / keyint=250 / keyint_min=25 / scenecut=40 / intra_refresh=0 / rc_lookahead=10 / rc=abr / mbtree=1 / bitrate=3379 / ratetol=1.0 / qcomp=0.60 / qpmin=0 / qpmax=69 / qpstep=4 / vbv_maxrate=62500 / vbv_bufsize=78125 / nal_hrd=none / filler=0 / ip_ratio=1.40 / aq=1:1.00
Default                                  : Yes
Forced                                   : No
Color range                              : Limited
Color primaries                          : BT.709
Transfer characteristics                 : BT.709
Matrix coefficients                      : BT.709

Audio
ID                                       : 2
Format                                   : AC-3
Format/Info                              : Audio Coding 3
Format settings, Endianness              : Big
Codec ID                                 : A_AC3
Duration                                 : 1 h 37 min
Bit rate mode                            : Constant
Bit rate                                 : 192 kb/s
Channel(s)                               : 2 channels
Channel positions                        : Front: L R
Sampling rate                            : 48.0 kHz
Frame rate                               : 31.250 FPS (1536 spf)
Bit depth                                : 16 bits
Compression mode                         : Lossy
Delay relative to video                  : -5 ms
Stream size                              : 134 MiB (5%)
Title                                    : Stereo
Language                                 : English
Service kind                             : Complete Main
Default                                  : Yes
Forced                                   : No






Click To View Screenshot

Click To View Screenshot

Click To View Screenshot

( Tags )





People also Search for: The.Lego.Ninjago.Movie.2017.720p.HC.HDRip.X264.AC3-EVO

  • • 1080p The.Lego.Ninjago.Movie.2017.720p.HC.HDRip.X264.AC3-EVO Torrent
  • • 720p The.Lego.Ninjago.Movie.2017.720p.HC.HDRip.X264.AC3-EVO DVDRip
  • • HD The.Lego.Ninjago.Movie.2017.720p.HC.HDRip.X264.AC3-EVO
  • • Dvix/Xvid The.Lego.Ninjago.Movie.2017.720p.HC.HDRip.X264.AC3-EVO
  • • Blu-ray The.Lego.Ninjago.Movie.2017.720p.HC.HDRip.X264.AC3-EVO

Recently Added Torrents

torrent name size age seed leech

Posted by   Admin  in 
1 year 625 108
991.98 MB 59 seconds 567 151
1.17 GB 59 seconds 388 336
26.9 MB 1 minute 607 366
826.9 MB 1 minute 521 99