Loading...

The Sterile Cuckoo 1969 720p BluRay x264-REGRET

seeders: 522
leechers: 465
The Sterile Cuckoo 1969 720p BluRay x264-REGRET magnet link

Info Hash: 85EF258F8C9EA4AFDF05E068A98705E522419D36
Loading...
The Sterile Cuckoo 1969 720p BluRay x264-REGRET
  • Downloads 9
  • Added 1 week
  • Quality Good
  • Torrent ID 72147636973
  • Note if .torrent file deleted click magnet below
  • Download Magnet
Torrent Info:
• You can easily download The Sterile Cuckoo 1969 720p BluRay x264-REGRET Torerent to your PC, MAC, Tablet, Mobile or any other devices.
• HD Quality Torrent The Sterile Cuckoo 1969 720p BluRay x264-REGRET
• Your Support Keep WatchTorrentMovie.Us alive.

Torrent Files

The Sterile Cuckoo 1969 720p BluRay x264-REGRET (Size: 3.3 GB)
  The Sterile Cuckoo 1969 720p BluRay x264-REGRET 3.3 GB

Torrent Description



The.Sterile.Cuckoo.1969.720p.BluRay.x264-REGRET

ImDb: http://www.imdb.com/title/tt0065037



Complete name : The.Sterile.Cuckoo.1969.720p.BluRay.x264-REGRET.mkv
Format : Matroska
Format version : Version 4 / Version 2
File size : 3.27 GiB
Duration : 1 h 47 min
Overall bit rate mode : Variable
Overall bit rate : 4 349 kb/s
Encoded date : UTC 2017-10-01 21:03:49
Writing application : mkvmerge v15.0.0 ('Duel with the Devil') 64-bit
Writing library : libebml v1.3.5 + libmatroska v1.4.5

Video
ID : 1
Format : AVC
Format/Info : Advanced Video Codec
Format profile : [email protected]
Format settings, CABAC : Yes
Format settings, ReFrames : 5 frames
Codec ID : V_MPEG4/ISO/AVC
Duration : 1 h 47 min
Bit rate : 4 096 kb/s
Width : 1 280 pixels
Height : 720 pixels
Display aspect ratio : 16:9
Frame rate mode : Constant
Frame rate : 23.976 (24000/1001) FPS
Color space : YUV
Chroma subsampling : 4:2:0
Bit depth : 8 bits
Scan type : Progressive
Bits/(Pixel*Frame) : 0.185
Stream size : 3.08 GiB (94%)
Writing library : x264 core 152 r2851 ba24899
Encoding settings : cabac=1 / ref=5 / deblock=1:-3:-3 / analyse=0x3:0x113 / me=umh / subme=8 / psy=1 / psy_rd=1.00:0.25 / mixed_ref=1 / me_range=24 / chroma_me=1 / trellis=1 / 8x8dct=1 / cqm=0 / deadzone=21,11 / fast_pskip=1 / chroma_qp_offset=-4 / threads=22 / lookahead_threads=3 / sliced_threads=0 / nr=0 / decimate=1 / interlaced=0 / bluray_compat=0 / constrained_intra=0 / bframes=3 / b_pyramid=2 / b_adapt=1 / b_bias=0 / direct=3 / weightb=1 / open_gop=0 / weightp=2 / keyint=240 / keyint_min=24 / scenecut=40 / intra_refresh=0 / rc_lookahead=50 / rc=2pass / mbtree=1 / bitrate=4096 / ratetol=1.0 / qcomp=0.60 / qpmin=0 / qpmax=69 / qpstep=4 / cplxblur=20.0 / qblur=0.5 / ip_ratio=1.40 / aq=1:0.75
Default : Yes
Forced : No

Audio
ID : 2
Format : FLAC
Format/Info : Free Lossless Audio Codec
Codec ID : A_FLAC
Duration : 1 h 47 min
Bit rate mode : Variable
Bit rate : 251 kb/s
Channel(s) : 1 channel
Channel positions : Front: C
Sampling rate : 48.0 kHz
Frame rate : 11.719 FPS (4096 spf)
Bit depth : 16 bits
Stream size : 193 MiB (6%)
Writing library : libFLAC 1.2.1 (UTC 2007-09-17)
Language : English
Default : Yes
Forced : No

Menu
00:00:00.000 : en:00:00:00.000
00:14:25.198 : en:00:14:25.198
00:23:43.213 : en:00:23:43.213
00:36:15.882 : en:00:36:15.882
00:58:36.263 : en:00:58:36.263
01:08:34.527 : en:01:08:34.527
01:19:18.587 : en:01:19:18.587
01:31:19.224 : en:01:31:19.224






Click To View Screenshot

Click To View Screenshot

Click To View Screenshot




( Tags )





People also Search for: The Sterile Cuckoo 1969 720p BluRay x264-REGRET

  • • 1080p The Sterile Cuckoo 1969 720p BluRay x264-REGRET Torrent
  • • 720p The Sterile Cuckoo 1969 720p BluRay x264-REGRET DVDRip
  • • HD The Sterile Cuckoo 1969 720p BluRay x264-REGRET
  • • Dvix/Xvid The Sterile Cuckoo 1969 720p BluRay x264-REGRET
  • • Blu-ray The Sterile Cuckoo 1969 720p BluRay x264-REGRET

Recently Added Torrents

torrent name size age seed leech

Posted by   Admin  in 
1 year 87 328
272.9 MB 3 minutes 500 465
52.31 MB 3 minutes 736 163
4.4 GB 3 minutes 794 103
1.5 GB 3 minutes 500 105