Loading...

Tim 1979 720p BluRay x264-x0r

seeders: 42
leechers: 473
Tim 1979 720p BluRay x264-x0r magnet link

Info Hash: 20B77213FE3C37013636D1EAE5F0B51FE06C0264
Loading...
Tim 1979 720p BluRay x264-x0r
  • Downloads 14
  • Added 1 week
  • Quality Good
  • Torrent ID 72147636905
  • Note if .torrent file deleted click magnet below
  • Download Magnet
Torrent Info:
• You can easily download Tim 1979 720p BluRay x264-x0r Torerent to your PC, MAC, Tablet, Mobile or any other devices.
• HD Quality Torrent Tim 1979 720p BluRay x264-x0r
• Your Support Keep WatchTorrentMovie.Us alive.

Torrent Files

Tim 1979 720p BluRay x264-x0r (Size: 2.1 GB)
  Tim 1979 720p BluRay x264-x0r 2.1 GB

Torrent Description



Tim.1979.720p.BluRay.x264-x0r

ImDb: http://www.imdb.com/title/tt6874186



Complete name : Tim.1979.720p.BluRay.x264-x0r.mkv
Format : Matroska
Format version : Version 4 / Version 2
File size : 2.08 GiB
Duration : 1 h 48 min
Overall bit rate : 2 754 kb/s
Movie name : Tim.1979.720p.BluRay.x264-x0r
Encoded date : UTC 2017-10-12 21:40:20
Writing application : mkvmerge v7.7.0 ('Six Voices') 64bit built on Mar 1 2015 01:50:05
Writing library : libebml v1.3.1 + libmatroska v1.4.2

Video
ID : 1
Format : AVC
Format/Info : Advanced Video Codec
Format profile : [email protected]
Format settings, CABAC : Yes
Format settings, ReFrames : 9 frames
Codec ID : V_MPEG4/ISO/AVC
Duration : 1 h 48 min
Bit rate : 2 560 kb/s
Width : 1 280 pixels
Height : 720 pixels
Display aspect ratio : 16:9
Frame rate mode : Variable
Frame rate : 23.976 FPS
Color space : YUV
Chroma subsampling : 4:2:0
Bit depth : 8 bits
Scan type : Progressive
Bits/(Pixel*Frame) : 0.116
Stream size : 1.94 GiB (93%)
Writing library : x264 core 130 r2273 b3065e6
Encoding settings : cabac=1 / ref=9 / deblock=1:-2:-2 / analyse=0x3:0x113 / me=umh / subme=9 / psy=1 / psy_rd=1.00:0.25 / mixed_ref=0 / me_range=32 / chroma_me=1 / trellis=2 / 8x8dct=1 / cqm=0 / deadzone=6,6 / fast_pskip=0 / chroma_qp_offset=-4 / threads=24 / lookahead_threads=2 / sliced_threads=0 / nr=0 / decimate=0 / interlaced=0 / bluray_compat=0 / constrained_intra=0 / bframes=6 / b_pyramid=2 / b_adapt=2 / b_bias=0 / direct=3 / weightb=1 / open_gop=0 / weightp=2 / keyint=240 / keyint_min=24 / scenecut=40 / intra_refresh=0 / rc_lookahead=60 / rc=2pass / mbtree=1 / bitrate=2560 / ratetol=1.0 / qcomp=0.00 / qpmin=0 / qpmax=69 / qpstep=4 / cplxblur=20.0 / qblur=0.5 / vbv_maxrate=20000 / vbv_bufsize=25000 / nal_hrd=none / ip_ratio=1.10 / aq=1:1.00
Language : English
Default : Yes
Forced : No
Color range : Limited
Color primaries : BT.709
Transfer characteristics : BT.709
Matrix coefficients : BT.709

Audio
ID : 2
Format : AC-3
Format/Info : Audio Coding 3
Format settings, Endianness : Big
Codec ID : A_AC3
Duration : 1 h 48 min
Bit rate mode : Constant
Bit rate : 192 kb/s
Channel(s) : 2 channels
Channel positions : Front: L R
Sampling rate : 48.0 kHz
Frame rate : 31.250 FPS (1536 spf)
Bit depth : 16 bits
Compression mode : Lossy
Stream size : 149 MiB (7%)
Title : Stereo
Language : English
Service kind : Complete Main
Default : Yes
Forced : No

Text
ID : 3
Format : UTF-8
Codec ID : S_TEXT/UTF8
Codec ID/Info : UTF-8 Plain Text
Duration : 1 h 43 min
Bit rate : 42 b/s
Count of elements : 855
Stream size : 32.4 KiB (0%)
Language : English
Default : Yes
Forced : No

Menu
00:00:00.000 : en:Chapter 1
00:06:51.761 : en:Chapter 2
00:16:12.530 : en:Chapter 3
00:20:06.805 : en:Chapter 4
00:26:46.038 : en:Chapter 5
00:34:03.600 : en:Chapter 6
00:39:43.314 : en:Chapter 7
00:47:00.376 : en:Chapter 8
00:52:21.572 : en:Chapter 9
00:57:40.724 : en:Chapter 10
01:02:21.254 : en:Chapter 11
01:10:43.297 : en:Chapter 12
01:18:31.974 : en:Chapter 13
01:24:55.732 : en:Chapter 14
01:33:04.846 : en:Chapter 15
01:41:29.642 : en:Chapter 16






Click To View Screenshot

Click To View Screenshot

Click To View Screenshot




( Tags )





People also Search for: Tim 1979 720p BluRay x264-x0r

  • • 1080p Tim 1979 720p BluRay x264-x0r Torrent
  • • 720p Tim 1979 720p BluRay x264-x0r DVDRip
  • • HD Tim 1979 720p BluRay x264-x0r
  • • Dvix/Xvid Tim 1979 720p BluRay x264-x0r
  • • Blu-ray Tim 1979 720p BluRay x264-x0r

Recently Added Torrents

torrent name size age seed leech
1.3 GB 7 minutes 635 149
188.69 MB 7 minutes 352 66
144.0 MB 7 minutes 80 363
1.4 GB 7 minutes 287 267
352.93 MB 7 minutes 24 345