Loading...

Wonder Woman(2017)BluRay1080[DaScubaDude]

seeders: 305
leechers: 380
Wonder Woman(2017)BluRay1080[DaScubaDude] magnet link

Info Hash: 6A78F63649301EE82CC75552AE6D34FE06EFDDBD
Loading...
Wonder Woman(2017)BluRay1080[DaScubaDude]
  • Downloads 12
  • Added 6 days
  • Quality Good
  • Torrent ID 72147636859
  • Note if .torrent file deleted click magnet below
  • Download Magnet
Torrent Info:
• You can easily download Wonder Woman(2017)BluRay1080[DaScubaDude] Torerent to your PC, MAC, Tablet, Mobile or any other devices.
• HD Quality Torrent Wonder Woman(2017)BluRay1080[DaScubaDude]
• Your Support Keep WatchTorrentMovie.Us alive.

Torrent Files

Wonder Woman(2017)BluRay1080[DaScubaDude] (Size: 3.4 GB)
  Wonder Woman(2017)BluRay1080[DaScubaDude] 3.4 GB

Torrent Description




[youtube]VSB4wGIdDwo[/youtube]
Wonder Woman (2017)
PG-13 | 2h 21min | Action, Adventure, Fantasy | 2 June 2017 (USA)
When a pilot crashes and tells of conflict in the outside world, Diana, an Amazonian warrior in training, leaves home to fight a war, discovering her full powers and true destiny.
Director: Patty Jenkins
Writers: Allan Heinberg (screenplay by), Zack Snyder (story by) |
Stars: Gal Gadot, Chris Pine, Robin Wright |

General
Complete name : Wonder Woman\Wonder Woman.mp4
Format : MPEG-4
Format profile : Base Media / Version 2
Codec ID : mp42 (isom/iso2/avc1/mp41)
File size : 3.39 GiB
Duration : 2 h 21 min
Overall bit rate mode : Variable
Overall bit rate : 3 438 kb/s
Encoded date : UTC 2017-10-12 03:36:19
Tagged date : UTC 2017-10-12 03:36:19
Writing application : HandBrake 1.0.7 2017040900

Video
ID : 1
Format : AVC
Format/Info : Advanced Video Codec
Format profile : [email protected]
Format settings, CABAC : Yes
Format settings, RefFrames : 4 frames
Codec ID : avc1
Codec ID/Info : Advanced Video Coding
Duration : 2 h 21 min
Bit rate : 3 271 kb/s
Width : 1 920 pixels
Height : 800 pixels
Display aspect ratio : 2.40:1
Frame rate mode : Variable
Frame rate : 23.976 (24000/1001) FPS
Minimum frame rate : 23.974 FPS
Maximum frame rate : 23.981 FPS
Color space : YUV
Chroma subsampling : 4:2:0
Bit depth : 8 bits
Scan type : Progressive
Bits/(Pixel*Frame) : 0.089
Stream size : 3.23 GiB (95%)
Writing library : x264 core 148 r2708 86b7198
Encoding settings : cabac=1 / ref=2 / deblock=1:0:0 / analyse=0x1:0x111 / me=hex / subme=6 / psy=1 / psy_rd=1.00:0.00 / mixed_ref=1 / me_range=16 / chroma_me=1 / trellis=1 / 8x8dct=0 / cqm=0 / deadzone=21,11 / fast_pskip=1 / chroma_qp_offset=-2 / threads=3 / lookahead_threads=1 / sliced_threads=0 / nr=0 / decimate=1 / interlaced=0 / bluray_compat=0 / constrained_intra=0 / bframes=3 / b_pyramid=2 / b_adapt=1 / b_bias=0 / direct=1 / weightb=1 / open_gop=0 / weightp=1 / keyint=240 / keyint_min=24 / scenecut=40 / intra_refresh=0 / rc_lookahead=30 / rc=crf / mbtree=1 / crf=22.0 / qcomp=0.60 / qpmin=0 / qpmax=69 / qpstep=4 / vbv_maxrate=20000 / vbv_bufsize=25000 / crf_max=0.0 / nal_hrd=none / filler=0 / ip_ratio=1.40 / aq=1:1.00
Encoded date : UTC 2017-10-12 03:36:19
Tagged date : UTC 2017-10-12 03:36:19
Color range : Limited
Color primaries : BT.709
Transfer characteristics : BT.709
Matrix coefficients : BT.709

Audio
ID : 2
Format : AAC
Format/Info : Advanced Audio Codec
Format profile : LC
Codec ID : 40
Duration : 2 h 21 min
Bit rate mode : Variable
Bit rate : 160 kb/s
Channel(s) : 2 channels
Channel positions : Front: L R
Sampling rate : 48.0 kHz
Frame rate : 46.875 FPS (1024 spf)
Compression mode : Lossy
Stream size : 162 MiB (5%)
Title : Stereo / Stereo
Default : Yes
Alternate group : 1
Encoded date : UTC 2017-10-12 03:36:19
Tagged date : UTC 2017-10-12 03:36:19




( Tags )





People also Search for: Wonder Woman(2017)BluRay1080[DaScubaDude]

  • • 1080p Wonder Woman(2017)BluRay1080[DaScubaDude] Torrent
  • • 720p Wonder Woman(2017)BluRay1080[DaScubaDude] DVDRip
  • • HD Wonder Woman(2017)BluRay1080[DaScubaDude]
  • • Dvix/Xvid Wonder Woman(2017)BluRay1080[DaScubaDude]
  • • Blu-ray Wonder Woman(2017)BluRay1080[DaScubaDude]

Recently Added Torrents

torrent name size age seed leech
83.38 MB 19 minutes 419 114
701.9 MB 19 minutes 339 117
690.6 MB 19 minutes 117 180
251.23 MB 19 minutes 22 330
2.8 GB 19 minutes 186 245